<?xml version="1.0" standalone="no"?>
<!DOCTYPE svg PUBLIC "-//W3C//DTD SVG 1.1//EN" "http://www.w3.org/Graphics/SVG/1.1/DTD/svg11.dtd" >
<svg xmlns="http://www.w3.org/2000/svg">
<defs>
  <font id="icon-font" horiz-adv-x="1672.265625">
    <font-face font-family="icon-font"
      units-per-em="1200" ascent="1200"
      descent="0" />
    <missing-glyph horiz-adv-x="0" />
    <glyph glyph-name="alarm"
      unicode="&#xE9A9;"
      horiz-adv-x="1211.71875" d="M1176.5625 247.265625Q1132.03125 247.265625 1101.5625 278.3203125T1071.09375 352.734375V635.15625Q1069.921875 706.640625 1048.828125 772.265625T990.234375 892.3828125T901.171875 990.234375Q848.4375 1032.421875 786.328125 1058.203125Q769.921875 1116.796875 721.875 1155.46875T611.71875 1194.140625T502.1484375 1156.0546875T440.625 1060.546875Q376.171875 1033.59375 323.4375 990.234375Q270.703125 948.046875 233.203125 892.96875T174.609375 772.265625T152.34375 635.15625V352.734375Q152.34375 309.375 121.875 278.3203125T46.875 247.265625V176.953125H434.765625Q434.765625 103.125 486.9140625 51.5625T611.71875 0T736.5234375 51.5625T788.671875 176.953125H1176.5625V247.265625zM611.71875 70.3125Q568.359375 70.3125 537.3046875 101.3671875T506.25 176.953125H717.1875Q717.1875 132.421875 686.1328125 101.3671875T611.71875 70.3125zM188.671875 247.265625Q205.078125 268.359375 214.453125 295.8984375T223.828125 352.734375V635.15625Q223.828125 698.4375 242.578125 755.859375T295.8984375 860.7421875T377.34375 944.53125T480.46875 1000.78125L506.25 1008.984375V1032.421875Q509.765625 1073.4375 539.6484375 1101.5625T611.71875 1129.6875Q653.90625 1129.6875 683.7890625 1101.5625T717.1875 1032.421875L719.53125 1008.984375L740.625 1000.78125Q798.046875 980.859375 846.09375 944.53125Q892.96875 908.203125 927.5390625 860.7421875T980.859375 755.859375T999.609375 635.15625V352.734375Q999.609375 323.4375 1008.984375 295.8984375T1035.9375 246.09375z" />
    <glyph glyph-name="alarmoff"
      unicode="&#xE9AA;"
      horiz-adv-x="1223.4375" d="M11.71875 50.390625L1161.328125 1200L1211.71875 1149.609375L62.109375 0L11.71875 50.390625zM1071.09375 352.734375V635.15625Q1069.921875 694.921875 1055.2734375 750.5859375T1013.671875 855.46875L962.109375 800.390625Q979.6875 764.0625 989.6484375 722.4609375T999.609375 635.15625V352.734375Q999.609375 323.4375 1008.984375 295.8984375T1035.9375 246.09375L408.984375 247.265625L337.5 176.953125H434.765625Q434.765625 103.125 486.9140625 51.5625T611.71875 0T736.5234375 51.5625T788.671875 176.953125H1176.5625V247.265625Q1132.03125 247.265625 1101.5625 278.3203125T1071.09375 352.734375zM611.71875 70.3125Q568.359375 70.3125 537.3046875 101.3671875T506.25 176.953125H717.1875Q717.1875 132.421875 686.1328125 101.3671875T611.71875 70.3125zM152.34375 359.765625V290.625L223.828125 360.9375V635.15625Q223.828125 698.4375 242.578125 755.859375T295.8984375 860.7421875T377.34375 944.53125T480.46875 1000.78125L506.25 1008.984375V1032.421875Q509.765625 1073.4375 539.6484375 1101.5625T611.71875 1129.6875Q653.90625 1129.6875 683.7890625 1101.5625T717.1875 1032.421875L719.53125 1008.984375L740.625 1000.78125Q764.0625 992.578125 785.15625 982.6171875T825 959.765625L874.21875 1011.328125Q854.296875 1025.390625 832.03125 1037.109375T786.328125 1058.203125Q769.921875 1116.796875 721.875 1155.46875T611.71875 1194.140625T502.1484375 1156.0546875T440.625 1060.546875Q376.171875 1033.59375 323.4375 990.234375Q270.703125 948.046875 233.203125 892.96875T174.609375 772.265625T152.34375 635.15625V359.765625z" />
    <glyph glyph-name="app"
      unicode="&#xE635;"
      horiz-adv-x="1211.71875" d="M682.03125 175.78125Q682.03125 146.484375 661.5234375 125.9765625T611.71875 105.46875T561.9140625 125.9765625T541.40625 175.78125T561.9140625 225.5859375T611.71875 246.09375T661.5234375 225.5859375T682.03125 175.78125zM875.390625 1200H349.21875Q297.65625 1200 260.7421875 1162.5T223.828125 1073.4375V126.5625Q223.828125 75 260.7421875 37.5T349.21875 0H875.390625Q926.953125 1.171875 963.28125 38.0859375T999.609375 126.5625V1073.4375Q999.609375 1125 963.28125 1161.9140625T875.390625 1200zM294.140625 1059.375Q295.3125 1087.5 315.8203125 1108.0078125T364.453125 1129.6875H858.984375Q887.109375 1128.515625 907.6171875 1108.0078125T929.296875 1059.375V987.890625H294.140625V1059.375zM929.296875 917.578125V352.734375H294.140625V917.578125H929.296875zM858.984375 70.3125H364.453125Q336.328125 71.484375 315.8203125 91.9921875T294.140625 140.625V282.421875H929.296875V140.625Q928.125 112.5 907.6171875 91.9921875T858.984375 70.3125zM471.09375 1094.53125H752.34375V1023.046875H471.09375V1094.53125z" />
    <glyph glyph-name="arrow"
      unicode="&#xE92A;"
      horiz-adv-x="1223.4375" d="M611.71875 1120.3125Q719.53125 1120.3125 814.453125 1079.296875T979.6875 967.96875T1091.015625 802.734375T1132.03125 600T1091.015625 397.265625T979.6875 232.03125T814.453125 120.703125T611.71875 79.6875T408.984375 120.703125T243.75 232.03125T132.421875 397.265625T91.40625 600T132.421875 802.734375T243.75 967.96875T408.984375 1079.296875T611.71875 1120.3125zM611.71875 1200Q488.671875 1200 379.6875 1151.953125Q270.703125 1105.078125 188.671875 1023.046875T59.765625 832.03125Q11.71875 723.046875 11.71875 600T59.765625 367.96875Q106.640625 258.984375 188.671875 176.953125T379.6875 48.046875Q488.671875 0 611.71875 0T843.75 48.046875Q952.734375 94.921875 1034.765625 176.953125T1163.671875 367.96875Q1211.71875 476.953125 1211.71875 600T1163.671875 832.03125Q1116.796875 941.015625 1034.765625 1023.046875T843.75 1151.953125Q734.765625 1200 611.71875 1200zM580.078125 296.484375L515.625 344.53125L755.859375 600L515.625 855.46875L580.078125 903.515625L867.1875 600zM51.5625 639.84375H764.0625V560.15625H51.5625V639.84375z" />
    <glyph glyph-name="arrowdown"
      unicode="&#xE9AF;"
      horiz-adv-x="1223.4375" d="M1141.40625 1023.046875V120.703125L60.9375 1200L11.71875 1150.78125L1091.015625 70.3125H188.671875V0H1211.71875V1023.046875H1141.40625z" />
    <glyph glyph-name="arrowtoleft"
      unicode="&#xE921;"
      horiz-adv-x="1211.71875" d="M1071.09375 617.578125H287.109375L551.953125 882.421875L502.734375 931.640625L152.34375 582.421875L502.734375 233.203125L551.953125 282.421875L287.109375 547.265625H1071.09375V617.578125z" />
    <glyph glyph-name="arrowtoright"
      unicode="&#xE920;"
      horiz-adv-x="1211.71875" d="M152.34375 617.578125H936.328125L671.484375 882.421875L720.703125 931.640625L1071.09375 582.421875L720.703125 233.203125L671.484375 282.421875L936.328125 547.265625H152.34375V617.578125z" />
    <glyph glyph-name="arrowup"
      unicode="&#xE9B0;"
      horiz-adv-x="1223.4375" d="M1141.40625 176.953125V1079.296875L60.9375 0L11.71875 49.21875L1091.015625 1129.6875H188.671875V1200H1211.71875V176.953125H1141.40625z" />
    <glyph glyph-name="audiomute"
      unicode="&#xE9A3;"
      horiz-adv-x="1223.4375" d="M321.09375 459.375H258.984375V705.46875H464.0625L752.34375 993.75V890.625L823.828125 960.9375V1164.84375L434.765625 776.953125H188.671875V387.890625H250.78125L321.09375 459.375zM752.34375 194.53125L544.921875 383.203125L495.703125 333.984375L823.828125 35.15625V662.109375L752.34375 591.796875V194.53125zM11.71875 50.390625L1161.328125 1200L1211.71875 1149.609375L62.109375 0L11.71875 50.390625z" />
    <glyph glyph-name="audioon"
      unicode="&#xE9A2;"
      horiz-adv-x="1222.265625" d="M11.71875 776.953125V387.890625H258.984375L646.875 35.15625V1164.84375L258.984375 776.953125H11.71875zM576.5625 993.75V194.53125L285.9375 459.375H82.03125V705.46875H288.28125zM1034.765625 1023.046875L986.71875 975Q1021.875 938.671875 1051.171875 896.484375Q1079.296875 853.125 1099.21875 805.6640625T1130.859375 706.640625Q1141.40625 655.078125 1141.40625 600T1130.859375 493.359375Q1119.140625 441.796875 1099.21875 394.3359375T1051.171875 304.6875Q1021.875 261.328125 986.71875 226.171875L1034.765625 176.953125Q1075.78125 216.796875 1108.59375 264.84375Q1140.234375 312.890625 1163.0859375 366.796875T1197.65625 479.296875Q1210.546875 537.890625 1210.546875 600T1197.65625 720.703125Q1185.9375 779.296875 1163.0859375 833.203125T1108.59375 935.15625Q1075.78125 983.203125 1034.765625 1023.046875zM925.78125 924.609375L876.5625 874.21875Q929.296875 821.484375 959.765625 751.171875T990.234375 600T959.765625 448.828125T876.5625 325.78125L925.78125 275.390625Q987.890625 337.5 1024.21875 421.2890625T1060.546875 600T1024.21875 778.7109375T925.78125 924.609375zM815.625 825L766.40625 774.609375Q800.390625 740.625 819.7265625 696.09375T839.0625 600T819.7265625 503.90625T766.40625 425.390625L815.625 375Q858.984375 418.359375 884.1796875 476.3671875T909.375 600T884.1796875 723.6328125T815.625 825z" />
    <glyph glyph-name="axels"
      unicode="&#xE96A;"
      horiz-adv-x="1200" d="M1040 685L1090 820L1030 840V845L1085.0000000000002 870L1025.0000000000002 1005L970.0000000000002 980L990 1040L850 1090L830.0000000000001 1030H825L800 1090L665 1030L690 970L630.0000000000001 990L580.0000000000001 850L640 830V825L585 800L645 670L700 695L680 635L819.9999999999999 585L839.9999999999999 645H844.9999999999999L869.9999999999999 590L1000 650L975 705L1040 685zM900 815C890 780 855.0000000000001 760 819.9999999999999 770C785 780 765 815 774.9999999999999 850C774.9999999999999 855 774.9999999999999 855 779.9999999999999 860C789.9999999999999 895 829.9999999999999 910 860 900C894.9999999999999 890 915 850 900 815zM580 460L630 510L515 625L465.0000000000001 575H455.0000000000001V650H290V580L240 630L125 510L175 460V455H100V290H170V285L120 235L235 120L285 170H290V100H454.9999999999999V170H459.9999999999999L509.9999999999999 120L624.9999999999998 235L574.9999999999998 285V290H650V455.0000000000001L580 460zM430 325C400 294.9999999999999 355 294.9999999999999 325 325C295 355.0000000000001 295 400 325 430C355 460 400 460 430 430S455 350 430 325z" />
    <glyph glyph-name="b-alphabet"
      unicode="&#xE92E;"
      horiz-adv-x="1215.234375" d="M1048.828125 1189.453125H176.953125Q112.5 1189.453125 67.3828125 1144.3359375T22.265625 1034.765625V162.890625Q22.265625 99.609375 67.3828125 53.90625T176.953125 8.203125H1048.828125Q1112.109375 8.203125 1157.8125 53.90625T1203.515625 162.890625V1034.765625Q1203.515625 1099.21875 1157.8125 1144.3359375T1048.828125 1189.453125zM1150.78125 162.890625Q1150.78125 120.703125 1120.8984375 90.8203125T1048.828125 60.9375H176.953125Q134.765625 60.9375 104.8828125 90.8203125T75 162.890625V1034.765625Q75 1076.953125 104.8828125 1106.8359375T176.953125 1136.71875H1048.828125Q1091.015625 1136.71875 1120.8984375 1106.8359375T1150.78125 1034.765625V162.890625zM787.5 612.890625Q807.421875 622.265625 824.4140625 636.328125T853.125 669.140625Q866.015625 687.890625 871.875 708.984375T877.734375 752.34375Q877.734375 773.4375 873.046875 792.1875T857.8125 828.515625Q848.4375 844.921875 835.546875 858.3984375T808.59375 882.421875Q793.359375 892.96875 776.3671875 899.4140625T740.625 909.375Q721.875 911.71875 693.1640625 913.4765625T626.953125 915.234375H367.96875V269.53125H588.28125Q650.390625 269.53125 689.6484375 270.703125T745.3125 274.21875Q771.09375 276.5625 793.359375 284.1796875T833.203125 304.6875T864.84375 333.984375T889.453125 371.484375Q898.828125 391.40625 904.1015625 413.0859375T909.375 457.03125Q909.375 485.15625 901.7578125 509.1796875T877.734375 554.296875Q861.328125 574.21875 839.0625 588.8671875T787.5 612.890625zM499.21875 807.421875H574.21875Q619.921875 807.421875 647.4609375 806.8359375T685.546875 805.078125Q701.953125 803.90625 713.671875 798.046875T734.765625 782.8125Q742.96875 773.4375 747.0703125 761.1328125T751.171875 734.765625Q751.171875 718.359375 745.8984375 706.0546875T731.25 684.375Q721.875 673.828125 708.984375 668.5546875T678.515625 660.9375Q670.3125 659.765625 646.2890625 659.1796875T584.765625 658.59375H499.21875V807.421875zM755.859375 407.8125Q747.65625 397.265625 735.3515625 390.8203125T708.984375 382.03125Q699.609375 380.859375 677.34375 379.6875T619.921875 378.515625H499.21875V550.78125H604.6875Q649.21875 550.78125 677.9296875 548.4375T719.53125 541.40625Q733.59375 536.71875 743.5546875 529.6875T760.546875 512.109375T771.09375 489.2578125T774.609375 462.890625Q774.609375 445.3125 769.921875 431.8359375T755.859375 407.8125z" />
    <glyph glyph-name="backtotop"
      unicode="&#xE600;"
      horiz-adv-x="1223.4375" d="M11.71875 1200H1211.71875V1129.6875H11.71875V1200zM262.5 603.515625L312.890625 554.296875L576.5625 817.96875V0H646.875V817.96875L910.546875 554.296875L960.9375 603.515625L611.71875 952.734375L262.5 603.515625z" />
    <glyph glyph-name="backward"
      unicode="&#xE601;"
      horiz-adv-x="1211.71875" d="M897.65625 0L209.765625 600L897.65625 1200L943.359375 1147.265625L315.234375 600L943.359375 52.734375z" />
    <glyph glyph-name="bargraph"
      unicode="&#xE909;"
      horiz-adv-x="1223.4375" d="M717.1875 1200V635.15625H506.25V917.578125H117.1875V70.3125H11.71875V0H1211.71875V70.3125H1106.25V1200H717.1875zM434.765625 705.46875V70.3125H188.671875V847.265625H434.765625V705.46875zM717.1875 70.3125H506.25V564.84375H717.1875V70.3125zM1034.765625 70.3125H788.671875V1129.6875H1034.765625V70.3125z" />
    <glyph glyph-name="base-coat"
      unicode="&#xE933;"
      horiz-adv-x="1250.390625" d="M1158.984375 162.890625H750Q716.015625 162.890625 693.1640625 138.8671875T670.3125 83.203125T694.3359375 27.5390625T750 3.515625H1158.984375Q1192.96875 3.515625 1215.8203125 27.5390625T1238.671875 83.203125T1215.8203125 138.8671875T1158.984375 162.890625zM1158.984375 30.46875H750Q727.734375 30.46875 712.5 45.703125T697.265625 83.203125T712.5 120.703125T750 135.9375H1158.984375Q1181.25 135.9375 1196.484375 120.703125T1211.71875 83.203125T1196.484375 45.703125T1158.984375 30.46875zM1158.984375 359.765625H750Q716.015625 359.765625 693.1640625 335.7421875T670.3125 280.078125T694.3359375 224.4140625T750 200.390625H1158.984375Q1192.96875 200.390625 1215.8203125 224.4140625T1238.671875 280.078125T1215.8203125 335.7421875T1158.984375 359.765625zM1158.984375 227.34375H750Q727.734375 227.34375 712.5 242.578125T697.265625 280.078125T712.5 317.578125T750 332.8125H1158.984375Q1181.25 332.8125 1196.484375 317.578125T1211.71875 280.078125T1196.484375 242.578125T1158.984375 227.34375zM750 397.265625H1158.984375Q1192.96875 397.265625 1215.8203125 421.2890625T1238.671875 476.953125T1214.0625 532.6171875T1158.984375 556.640625H750Q716.015625 556.640625 693.1640625 532.6171875T670.3125 476.953125T693.1640625 421.2890625T750 397.265625zM750 529.6875H1158.984375Q1181.25 529.6875 1196.484375 514.453125T1211.71875 476.953125T1196.484375 439.453125T1158.984375 424.21875H750Q727.734375 424.21875 712.5 439.453125T697.265625 476.953125T712.5 514.453125T750 529.6875zM500.390625 162.890625H91.40625Q57.421875 162.890625 34.5703125 138.8671875T11.71875 83.203125T35.7421875 27.5390625T91.40625 3.515625H500.390625Q534.375 3.515625 557.2265625 27.5390625T580.078125 83.203125T557.2265625 138.8671875T500.390625 162.890625zM500.390625 30.46875H91.40625Q67.96875 30.46875 53.3203125 45.703125T38.671875 83.203125T53.3203125 120.703125T91.40625 135.9375H500.390625Q522.65625 135.9375 537.890625 120.703125T553.125 83.203125T537.890625 45.703125T500.390625 30.46875zM500.390625 359.765625H91.40625Q57.421875 359.765625 34.5703125 335.7421875T11.71875 280.078125T35.7421875 224.4140625T91.40625 200.390625H500.390625Q534.375 200.390625 557.2265625 224.4140625T580.078125 280.078125T557.2265625 335.7421875T500.390625 359.765625zM500.390625 227.34375H91.40625Q67.96875 227.34375 53.3203125 242.578125T38.671875 280.078125T53.3203125 317.578125T91.40625 332.8125H500.390625Q522.65625 332.8125 537.890625 317.578125T553.125 280.078125T537.890625 242.578125T500.390625 227.34375zM500.390625 560.15625H91.40625Q57.421875 560.15625 34.5703125 536.1328125T11.71875 480.46875Q11.71875 450 35.7421875 425.390625T91.40625 400.78125H500.390625Q534.375 400.78125 557.2265625 425.390625T580.078125 480.46875Q580.078125 512.109375 557.2265625 536.1328125T500.390625 560.15625zM500.390625 424.21875H91.40625Q67.96875 424.21875 53.3203125 439.453125T38.671875 476.953125T53.3203125 514.453125T91.40625 529.6875H500.390625Q522.65625 529.6875 537.890625 514.453125T553.125 476.953125T537.890625 439.453125T500.390625 424.21875zM500.390625 757.03125H91.40625Q57.421875 757.03125 34.5703125 733.0078125T11.71875 677.34375Q11.71875 646.875 35.7421875 620.5078125T91.40625 594.140625H500.390625Q534.375 594.140625 557.2265625 618.1640625T580.078125 673.828125T557.2265625 731.25T500.390625 757.03125zM500.390625 621.09375H91.40625Q67.96875 621.09375 53.3203125 636.328125T38.671875 673.828125T53.3203125 711.328125T91.40625 726.5625H500.390625Q522.65625 726.5625 537.890625 711.328125T553.125 673.828125T537.890625 636.328125T500.390625 621.09375zM500.390625 953.90625H91.40625Q59.765625 953.90625 35.7421875 929.296875T11.71875 870.703125T35.7421875 813.8671875T91.40625 791.015625H500.390625Q534.375 791.015625 557.2265625 815.0390625T580.078125 870.703125T557.2265625 928.125T500.390625 953.90625zM500.390625 821.484375H91.40625Q67.96875 821.484375 53.3203125 836.71875T38.671875 874.21875Q38.671875 897.65625 53.3203125 912.3046875T91.40625 926.953125H500.390625Q522.65625 926.953125 537.890625 912.3046875T553.125 874.21875Q553.125 851.953125 537.890625 836.71875T500.390625 821.484375zM943.359375 696.09375V693.75V696.09375V693.75V696.09375Q945.703125 693.75 948.6328125 693.1640625T953.90625 692.578125Q957.421875 692.578125 960.3515625 693.1640625T965.625 696.09375L1101.5625 833.203125Q1105.078125 835.546875 1105.078125 841.9921875T1101.5625 851.953125Q1099.21875 854.296875 1092.7734375 854.296875T1082.8125 851.953125L972.65625 741.796875V1184.765625Q972.65625 1190.625 967.96875 1195.3125T958.59375 1200Q952.734375 1200 948.046875 1195.3125T943.359375 1184.765625V738.28125L833.203125 848.4375Q830.859375 850.78125 823.828125 850.78125T814.453125 848.4375Q810.9375 844.921875 810.9375 838.4765625T814.453125 828.515625L943.359375 696.09375z" />
    <glyph glyph-name="bills-collecting"
      unicode="&#xE938;"
      horiz-adv-x="1211.71875" d="M234.375 315.234375V931.640625H881.25V169.921875Q881.25 166.40625 867.1875 108.984375T772.265625 51.5625Q692.578125 51.5625 675 87.3046875T657.421875 165.234375V315.234375H234.375zM56.25 270.703125H612.890625V165.234375Q612.890625 146.484375 616.9921875 113.0859375T646.875 51.5625H166.40625Q86.71875 51.5625 71.484375 101.953125T56.25 161.71875V270.703125zM189.84375 976.171875V315.234375H11.71875V161.71875Q11.71875 120.703125 43.359375 63.8671875T166.40625 7.03125H733.59375V9.375Q741.796875 8.203125 751.7578125 7.6171875T772.265625 7.03125Q863.671875 7.03125 895.3125 67.3828125T926.953125 169.921875V976.171875H189.84375zM349.21875 753.515625H813.28125V798.046875H349.21875V753.515625zM349.21875 625.78125H813.28125V671.484375H349.21875V625.78125zM349.21875 498.046875H489.84375V543.75H349.21875V498.046875zM540.234375 498.046875H739.453125V543.75H540.234375V498.046875zM444.140625 1200V1021.875Q455.859375 1024.21875 467.578125 1023.046875T488.671875 1016.015625V1155.46875H1136.71875V393.75Q1136.71875 390.234375 1122.65625 332.8125T1026.5625 275.390625Q1011.328125 275.390625 998.4375 277.1484375T975 281.25Q976.171875 280.078125 976.171875 278.3203125V274.21875Q979.6875 262.5 977.34375 251.3671875T970.3125 230.859375H987.890625V233.203125Q997.265625 232.03125 1006.640625 231.4453125T1026.5625 230.859375Q1117.96875 230.859375 1149.609375 291.2109375T1181.25 393.75V1200H444.140625z" />
    <glyph glyph-name="bin"
      unicode="&#xE915;"
      horiz-adv-x="1211.71875" d="M1141.40625 1059.375H823.828125V1200H399.609375V1059.375H82.03125V987.890625H188.671875V0H1034.765625V987.890625H1141.40625V1059.375zM471.09375 1129.6875H752.34375V1059.375H471.09375V1129.6875zM964.453125 70.3125H258.984375V987.890625H964.453125V70.3125zM399.609375 776.953125H471.09375V212.109375H399.609375V776.953125zM576.5625 776.953125H646.875V212.109375H576.5625V776.953125zM752.34375 776.953125H823.828125V212.109375H752.34375V776.953125z" />
    <glyph glyph-name="biofuel"
      unicode="&#xE92B;"
      horiz-adv-x="1140.234375" d="M1068.75 300Q1068.75 305.859375 1066.40625 306.4453125T1058.203125 307.03125H557.8125V406.640625Q667.96875 412.5 689.6484375 479.296875L711.328125 546.09375Q711.328125 629.296875 690.234375 731.25Q670.3125 834.375 643.359375 927.5390625T590.625 1091.015625Q566.015625 1162.5 557.8125 1182.421875Q557.8125 1187.109375 555.46875 1190.625T550.78125 1196.484375H536.71875Q530.859375 1194.140625 530.2734375 1190.625T529.6875 1182.421875Q521.484375 1162.5 496.875 1091.015625Q471.09375 1020.703125 444.7265625 927.5390625T397.265625 731.25Q376.171875 629.296875 376.171875 546.09375L397.8515625 479.296875L529.6875 406.640625V307.03125H233.203125Q227.34375 307.03125 225 306.4453125T222.65625 303.515625L15.234375 21.09375Q12.890625 18.75 12.3046875 15.8203125T11.71875 7.03125Q14.0625 4.6875 16.9921875 2.34375T22.265625 0H847.265625Q849.609375 0 852.5390625 2.34375T857.8125 7.03125L1065.234375 289.453125Q1071.09375 291.796875 1071.09375 294.7265625T1068.75 300zM400.78125 549.609375Q400.78125 621.09375 417.1875 708.984375Q434.765625 795.703125 457.6171875 880.078125T503.90625 1035.9375T540.234375 1146.09375Q555.46875 1107.421875 578.90625 1035.9375Q603.515625 964.453125 626.3671875 880.078125T664.453125 708.984375Q680.859375 621.09375 679.6875 549.609375Q679.6875 547.265625 661.5234375 493.9453125T554.296875 435.9375V653.90625L629.296875 728.90625Q632.8125 731.25 632.8125 737.6953125T629.296875 746.484375Q626.953125 748.828125 620.5078125 748.828125T611.71875 746.484375L557.8125 692.578125V789.84375Q557.8125 794.53125 553.7109375 799.21875T543.75 803.90625Q539.0625 803.90625 534.375 799.21875T529.6875 789.84375V628.125L475.78125 678.515625Q473.4375 680.859375 466.9921875 680.859375T458.203125 678.515625T455.859375 669.7265625T458.203125 660.9375L533.203125 585.9375V435.9375Q439.453125 440.625 420.1171875 493.9453125T400.78125 549.609375zM843.75 28.125H51.5625L236.71875 282.421875H529.6875V225Q529.6875 219.140625 534.375 215.0390625T543.75 210.9375Q549.609375 210.9375 553.7109375 215.0390625T557.8125 225V282.421875H1033.59375L843.75 28.125zM322.265625 242.578125Q303.515625 242.578125 290.0390625 229.1015625T276.5625 196.875T290.0390625 164.0625T322.265625 150T355.078125 164.0625T369.140625 196.875T355.078125 229.1015625T322.265625 242.578125zM322.265625 174.609375Q314.0625 174.609375 309.375 179.8828125T304.6875 193.359375Q304.6875 200.390625 309.375 205.6640625T322.265625 210.9375T335.15625 205.6640625T339.84375 193.359375Q339.84375 187.5 335.15625 181.0546875T322.265625 174.609375zM669.140625 164.0625Q690.234375 164.0625 704.296875 178.7109375T718.359375 214.453125T704.296875 250.1953125T669.140625 264.84375Q646.875 264.84375 632.8125 250.1953125T618.75 214.453125T632.8125 178.7109375T669.140625 164.0625zM669.140625 239.0625Q679.6875 239.0625 686.71875 232.03125T693.75 214.453125T686.71875 196.875T669.140625 189.84375T650.9765625 196.875T643.359375 214.453125T650.9765625 232.03125T669.140625 239.0625zM437.109375 142.96875Q420.703125 142.96875 408.984375 131.25T397.265625 103.125Q397.265625 87.890625 408.984375 76.171875T437.109375 64.453125Q452.34375 64.453125 464.0625 76.171875T475.78125 103.125Q475.78125 119.53125 464.0625 131.25T437.109375 142.96875zM437.109375 89.0625Q431.25 89.0625 426.5625 93.75T421.875 103.125Q421.875 108.984375 426.5625 113.671875T437.109375 118.359375Q441.796875 118.359375 446.484375 113.671875T451.171875 103.125Q451.171875 98.4375 446.484375 93.75T437.109375 89.0625zM697.265625 96.09375Q697.265625 80.859375 708.984375 69.140625T737.109375 57.421875Q752.34375 57.421875 764.0625 69.140625T775.78125 96.09375Q775.78125 112.5 764.0625 124.21875T737.109375 135.9375Q720.703125 135.9375 708.984375 124.21875T697.265625 96.09375zM740.625 110.15625Q745.3125 110.15625 750 106.0546875T754.6875 96.09375Q754.6875 91.40625 750 86.71875T740.625 82.03125Q734.765625 82.03125 730.6640625 86.71875T726.5625 96.09375Q726.5625 101.953125 729.4921875 106.0546875T740.625 110.15625z" />
    <glyph glyph-name="bluetooth"
      unicode="&#xE9B3;"
      horiz-adv-x="1211.71875" d="M912.890625 857.8125L569.53125 1200V683.203125L371.484375 882.421875Q366.796875 887.109375 360.3515625 890.0390625T346.875 892.96875Q331.640625 892.96875 321.09375 882.421875T310.546875 857.8125Q310.546875 849.609375 313.4765625 843.1640625T321.09375 832.03125L553.125 600L321.09375 367.96875Q316.40625 363.28125 313.4765625 356.8359375T310.546875 342.1875Q310.546875 328.125 321.09375 317.578125T346.875 307.03125Q353.90625 307.03125 360.3515625 309.9609375T371.484375 317.578125L569.53125 516.796875V0L912.890625 342.1875L655.078125 600zM641.015625 1028.90625L812.109375 857.8125L641.015625 685.546875V1028.90625zM812.109375 343.359375L641.015625 171.09375V514.453125z" />
    <glyph glyph-name="book"
      unicode="&#xE90A;"
      horiz-adv-x="1223.4375" d="M11.71875 140.625Q104.296875 142.96875 194.53125 131.25Q283.59375 119.53125 359.765625 99.0234375T493.359375 52.734375Q549.609375 26.953125 576.5625 0H646.875Q673.828125 25.78125 730.078125 50.390625Q787.5 76.171875 863.671875 96.09375T1028.90625 128.90625Q1119.140625 140.625 1211.71875 140.625V1200Q1067.578125 1200 955.078125 1177.734375Q843.75 1155.46875 767.578125 1129.1015625T651.5625 1080.46875L611.71875 1059.375L573.046875 1080.46875Q533.203125 1102.734375 457.03125 1129.1015625T269.53125 1177.734375Q157.03125 1200 11.71875 1200V140.625zM82.03125 212.109375V1129.6875Q151.171875 1127.34375 216.796875 1116.796875Q282.421875 1107.421875 345.1171875 1088.671875T467.578125 1044.140625Q526.171875 1018.359375 581.25 985.546875L576.5625 105.46875Q521.484375 130.078125 462.890625 150Q404.296875 168.75 342.1875 182.8125T214.453125 203.90625Q150 210.9375 83.203125 212.109375H82.03125zM1141.40625 212.109375Q1073.4375 210.9375 1008.984375 203.90625Q943.359375 195.703125 880.6640625 182.2265625T757.03125 148.828125T638.671875 103.125L646.875 987.890625Q699.609375 1019.53125 758.203125 1045.3125T878.90625 1089.2578125T1006.640625 1116.796875Q1072.265625 1127.34375 1140.234375 1129.6875z" />
    <glyph glyph-name="burger"
      unicode="&#xE602;"
      horiz-adv-x="1223.4375" d="M11.71875 1200H1211.71875V1129.6875H11.71875V1200zM11.71875 70.3125H1211.71875V0H11.71875V70.3125zM11.71875 635.15625H1211.71875V564.84375H11.71875V635.15625z" />
    <glyph glyph-name="burgerbun"
      unicode="&#xE934;"
      horiz-adv-x="1223.4375" d="M1211.71875 945.703125H11.71875V792.1875H1211.71875V945.703125zM1211.71875 407.8125H11.71875V254.296875H1211.71875V407.8125z" />
    <glyph glyph-name="calendar"
      unicode="&#xE603;"
      horiz-adv-x="1223.4375" d="M1071.09375 1094.53125V1200H858.984375V1094.53125H364.453125V1200H152.34375V1094.53125H11.71875V0H1211.71875V1094.53125H1071.09375zM929.296875 1129.6875H999.609375V1023.046875H929.296875V1129.6875zM223.828125 1129.6875H294.140625V1023.046875H223.828125V1129.6875zM1141.40625 70.3125H82.03125V776.953125H1141.40625V70.3125zM1141.40625 847.265625H82.03125V1023.046875H152.34375V952.734375H364.453125V1023.046875H858.984375V952.734375H1071.09375V1023.046875H1141.40625V847.265625zM188.671875 600H294.140625V494.53125H188.671875V600zM434.765625 600H541.40625V494.53125H434.765625V600zM682.03125 600H788.671875V494.53125H682.03125V600zM929.296875 600H1034.765625V494.53125H929.296875V600zM188.671875 387.890625H294.140625V282.421875H188.671875V387.890625zM434.765625 387.890625H541.40625V282.421875H434.765625V387.890625zM682.03125 387.890625H788.671875V282.421875H682.03125V387.890625zM929.296875 387.890625H1034.765625V282.421875H929.296875V387.890625z" />
    <glyph glyph-name="camera"
      unicode="&#xE604;"
      horiz-adv-x="1223.4375" d="M611.71875 776.953125Q560.15625 776.953125 515.625 757.03125T437.109375 703.7109375T384.375 625.78125Q364.453125 580.078125 364.453125 529.6875Q364.453125 478.125 384.375 433.59375Q403.125 387.890625 437.109375 354.4921875T515.625 302.34375Q560.15625 282.421875 611.71875 282.421875T707.8125 302.34375Q752.34375 321.09375 786.328125 354.4921875T839.0625 433.59375Q858.984375 478.125 858.984375 529.6875Q858.984375 580.078125 839.0625 625.78125Q820.3125 670.3125 786.328125 703.7109375T707.8125 757.03125T611.71875 776.953125zM611.71875 352.734375Q539.0625 352.734375 486.9140625 404.296875T434.765625 529.6875Q434.765625 602.34375 486.9140625 653.90625T611.71875 705.46875T736.5234375 653.90625T788.671875 529.6875Q788.671875 455.859375 736.5234375 404.296875T611.71875 352.734375zM1211.71875 882.421875H873.046875L732.421875 1023.046875H491.015625L350.390625 882.421875H11.71875V140.625H1211.71875V882.421875zM82.03125 212.109375V812.109375H379.6875L520.3125 952.734375H703.125L843.75 812.109375H1141.40625V212.109375H82.03125zM1034.765625 740.625H929.296875V635.15625H1034.765625V740.625zM999.609375 670.3125H964.453125V705.46875H999.609375V670.3125z" />
    <glyph glyph-name="card"
      unicode="&#xE605;"
      horiz-adv-x="1225.78125" d="M1204.6875 564.84375L1005.46875 1044.140625Q993.75 1073.4375 966.796875 1091.6015625T907.03125 1109.765625Q896.484375 1109.765625 885.9375 1108.0078125T864.84375 1101.5625L78.515625 776.953125Q49.21875 764.0625 30.46875 737.6953125T11.71875 678.515625Q11.71875 666.796875 14.0625 655.6640625T21.09375 635.15625L220.3125 155.859375Q233.203125 126.5625 259.5703125 107.8125T318.75 89.0625Q330.46875 90.234375 341.015625 91.9921875T360.9375 98.4375L1147.265625 423.046875Q1176.5625 435.9375 1195.3125 462.3046875T1214.0625 521.484375Q1214.0625 533.203125 1211.71875 544.3359375T1204.6875 564.84375zM1120.3125 491.015625L332.8125 162.890625Q329.296875 161.71875 325.78125 161.1328125T318.75 160.546875Q307.03125 160.546875 298.2421875 166.40625T285.9375 182.8125L86.71875 664.453125Q85.546875 666.796875 84.9609375 670.3125T84.375 677.34375Q84.375 687.890625 90.234375 696.6796875T105.46875 710.15625L892.96875 1037.109375Q896.484375 1038.28125 900 1038.8671875T907.03125 1039.453125Q918.75 1039.453125 927.5390625 1033.59375T939.84375 1017.1875L1139.0625 536.71875Q1141.40625 533.203125 1141.9921875 529.6875T1142.578125 522.65625Q1142.578125 510.9375 1136.1328125 502.1484375T1120.3125 489.84375V491.015625zM329.296875 700.78125L745.3125 874.21875L772.265625 808.59375L356.25 636.328125L329.296875 700.78125z" />
    <glyph glyph-name="catalyst"
      unicode="&#xE939;"
      horiz-adv-x="1187.109375" d="M99.609375 267.1875Q105.46875 267.1875 110.15625 271.875T114.84375 283.59375V585.9375H561.328125V283.59375Q561.328125 276.5625 566.6015625 271.875T577.734375 267.1875T588.8671875 271.875T594.140625 283.59375V585.9375H1044.140625V283.59375Q1044.140625 276.5625 1049.4140625 271.875T1060.546875 267.1875T1071.09375 271.875T1075.78125 283.59375V597.65625Q1075.78125 601.171875 1075.1953125 604.1015625T1072.265625 610.546875Q1068.75 612.890625 1065.8203125 613.4765625T1060.546875 614.0625H594.140625V844.921875Q662.109375 850.78125 709.5703125 901.171875T757.03125 1020.703125Q757.03125 1095.703125 704.8828125 1147.8515625T577.734375 1200T452.34375 1147.8515625T401.953125 1020.703125Q401.953125 951.5625 449.4140625 901.171875T566.015625 844.921875V614.0625H99.609375Q93.75 614.0625 88.4765625 608.7890625T83.203125 597.65625V283.59375Q86.71875 276.5625 90.234375 271.875T99.609375 267.1875zM430.078125 1020.703125Q430.078125 1080.46875 474.0234375 1124.4140625T577.734375 1168.359375T681.4453125 1124.4140625T725.390625 1020.703125T681.4453125 916.9921875T577.734375 873.046875T474.0234375 916.9921875T430.078125 1020.703125zM669.140625 159.375L526.171875 56.25L489.84375 127.734375Q487.5 133.59375 481.640625 135.9375T469.921875 135.9375Q464.0625 132.421875 461.71875 127.1484375T461.71875 116.015625L506.25 28.125Q506.25 24.609375 506.8359375 24.0234375T509.765625 19.921875Q513.28125 16.40625 516.2109375 14.0625T521.484375 11.71875H529.6875L689.0625 127.734375Q694.921875 130.078125 695.5078125 137.109375T693.75 147.65625Q687.890625 159.375 681.4453125 161.1328125T669.140625 159.375zM1171.875 155.859375Q1168.359375 161.71875 1161.9140625 162.3046875T1151.953125 159.375L1007.8125 56.25L967.96875 127.734375Q965.625 133.59375 960.3515625 135.9375T948.046875 135.9375Q942.1875 132.421875 939.84375 127.1484375T941.015625 116.015625L984.375 28.125Q984.375 24.609375 984.9609375 24.0234375T987.890625 19.921875Q991.40625 16.40625 994.3359375 14.0625T1000.78125 11.71875H1007.8125L1168.359375 127.734375Q1174.21875 137.109375 1174.8046875 143.5546875T1171.875 155.859375zM182.8125 171.09375Q180.46875 174.609375 173.4375 174.609375T162.890625 171.09375L99.609375 107.8125L35.15625 171.09375Q32.8125 174.609375 25.78125 174.609375T15.234375 171.09375Q12.890625 168.75 12.890625 161.71875T15.234375 151.171875L79.6875 87.890625L15.234375 23.4375Q12.890625 21.09375 12.890625 14.0625T15.234375 3.515625Q18.75 1.171875 21.6796875 0.5859375T28.125 0Q30.46875 0 33.3984375 0.5859375T39.84375 3.515625L103.125 67.96875L162.890625 3.515625Q166.40625 1.171875 169.3359375 0.5859375T174.609375 0Q178.125 0 181.0546875 0.5859375T187.5 3.515625Q189.84375 7.03125 189.84375 14.0625T187.5 23.4375L123.046875 87.890625L187.5 151.171875Q189.84375 154.6875 189.2578125 161.71875T182.8125 171.09375z" />
    <glyph glyph-name="chat"
      unicode="&#xE99B;"
      horiz-adv-x="1223.4375" d="M11.71875 1200V282.421875H399.609375V0L682.03125 282.421875H1211.71875V1200H11.71875zM1141.40625 352.734375H652.734375L471.09375 171.09375V352.734375H82.03125V1129.6875H1141.40625V352.734375zM682.03125 740.625Q682.03125 712.5 661.5234375 691.40625T611.71875 670.3125T561.9140625 691.40625T541.40625 740.625Q541.40625 769.921875 561.9140625 791.015625T611.71875 812.109375T661.5234375 791.015625T682.03125 740.625zM929.296875 740.625Q929.296875 712.5 908.7890625 691.40625T858.984375 670.3125T809.1796875 691.40625T788.671875 740.625Q788.671875 769.921875 809.1796875 791.015625T858.984375 812.109375T908.7890625 791.015625T929.296875 740.625zM434.765625 740.625Q434.765625 712.5 414.2578125 691.40625T364.453125 670.3125T314.6484375 691.40625T294.140625 740.625Q294.140625 769.921875 314.6484375 791.015625T364.453125 812.109375T414.2578125 791.015625T434.765625 740.625z" />
    <glyph glyph-name="check"
      unicode="&#xE911;"
      horiz-adv-x="1223.4375" d="M1211.71875 977.34375L434.765625 176.953125L11.71875 600L64.453125 645.703125L434.765625 283.59375L1158.984375 1023.046875L1211.71875 977.34375z" />
    <glyph glyph-name="checkmark"
      unicode="&#xE9A7;"
      horiz-adv-x="1223.4375" d="M364.453125 152.34375L11.71875 505.078125L62.109375 554.296875L364.453125 251.953125L1162.5 1047.65625L1211.71875 998.4375L364.453125 152.34375z" />
    <glyph glyph-name="checkmarkbox"
      unicode="&#xE9A6;"
      horiz-adv-x="1223.4375" d="M471.09375 338.671875L269.53125 539.0625L318.75 589.453125L471.09375 438.28125L904.6875 871.875L953.90625 821.484375L471.09375 338.671875zM1211.71875 0H11.71875V1200H1211.71875V0zM82.03125 70.3125H1141.40625V1129.6875H82.03125V70.3125z" />
    <glyph glyph-name="chemical"
      unicode="&#xE930;"
      horiz-adv-x="1027.734375" d="M918.75 605.859375V878.90625H1001.953125Q1007.8125 878.90625 1011.9140625 883.0078125T1016.015625 892.96875T1011.9140625 902.9296875T1001.953125 907.03125H611.71875Q605.859375 907.03125 601.7578125 902.9296875T597.65625 892.96875T601.7578125 883.0078125T611.71875 878.90625H694.921875V605.859375Q650.390625 576.5625 624.0234375 529.6875T597.65625 428.90625Q597.65625 342.1875 659.1796875 280.6640625T807.421875 219.140625Q892.96875 219.140625 954.4921875 280.6640625T1016.015625 428.90625Q1016.015625 482.8125 989.6484375 529.6875T918.75 605.859375zM807.421875 247.265625Q748.828125 247.265625 702.5390625 280.6640625T637.5 365.625H976.171875Q957.421875 314.0625 911.71875 280.6640625T807.421875 247.265625zM984.375 394.921875H629.296875Q626.953125 403.125 626.3671875 411.9140625T625.78125 428.90625Q625.78125 478.125 650.390625 520.3125T717.1875 587.109375Q721.875 589.453125 723.046875 593.5546875T723.046875 602.34375V878.90625H890.625V602.34375Q889.453125 597.65625 891.2109375 592.96875T897.65625 587.109375Q939.84375 562.5 964.453125 520.3125T989.0625 428.90625Q987.890625 419.53125 987.3046875 411.328125T984.375 394.921875zM416.015625 907.03125H25.78125Q19.921875 907.03125 15.8203125 902.9296875T11.71875 892.96875T15.8203125 883.0078125T25.78125 878.90625H108.984375V111.328125Q108.984375 65.625 141.796875 32.8125T221.484375 0Q267.1875 0 300 32.8125T332.8125 111.328125V878.90625H416.015625Q421.875 878.90625 425.9765625 883.0078125T430.078125 892.96875T425.9765625 902.9296875T416.015625 907.03125zM221.484375 28.125Q186.328125 28.125 161.71875 52.734375T137.109375 111.328125V610.546875H304.6875V111.328125Q304.6875 77.34375 280.078125 52.734375T221.484375 28.125zM304.6875 638.671875H137.109375V878.90625H304.6875V638.671875zM221.484375 977.34375Q227.34375 977.34375 230.859375 980.859375T234.375 990.234375V1171.875H792.1875V990.234375Q792.1875 984.375 796.875 980.2734375T807.421875 976.171875T817.3828125 980.2734375T821.484375 990.234375V1185.9375Q821.484375 1191.796875 817.3828125 1195.8984375T807.421875 1200H221.484375Q215.625 1200 211.5234375 1195.8984375T207.421875 1185.9375V990.234375Q207.421875 984.375 211.5234375 980.859375T221.484375 977.34375z" />
    <glyph glyph-name="circulating"
      unicode="&#xE96B;"
      horiz-adv-x="1200" d="M1100 600C1100 875 875 1100 600 1100C580 1100 565 1100 545 1095L575 995L600 1000C819.9999999999999 1000 1000 820 1000 600C1000 515 969.9999999999998 430 919.9999999999998 360V515H819.9999999999999V235H1100V335H1025C1075 415 1100 505 1100 600zM600 200C380 200 200 380.0000000000001 200 600C200 685 230 770 280 840V685H380V965H100V865H175C30 630 100 319.9999999999999 335 175C415.0000000000001 125 505 100 600 100H655L625 200H600zM600 750C535 660 500 595 500 555C500 500 545 455 600 455S700 500 700 555C700 590 670 655 610 740L600 750z" />
    <glyph glyph-name="clock"
      unicode="&#xE9A8;"
      horiz-adv-x="1223.4375" d="M611.71875 0Q487.5 0 378.515625 46.875Q268.359375 93.75 186.9140625 175.1953125T58.59375 366.796875Q11.71875 475.78125 11.71875 600T58.59375 833.203125Q105.46875 943.359375 186.9140625 1024.8046875T378.515625 1153.125Q487.5 1200 611.71875 1200T844.921875 1153.125Q955.078125 1106.25 1036.5234375 1024.8046875T1164.84375 833.203125Q1211.71875 724.21875 1211.71875 600T1164.84375 366.796875Q1117.96875 256.640625 1036.5234375 175.1953125T844.921875 46.875Q735.9375 0 611.71875 0zM611.71875 1129.6875Q501.5625 1129.6875 405.46875 1087.5Q309.375 1046.484375 237.3046875 974.4140625T124.21875 806.25Q82.03125 710.15625 82.03125 600T124.21875 393.75Q165.234375 297.65625 237.3046875 225.5859375T405.46875 112.5Q501.5625 70.3125 611.71875 70.3125T817.96875 112.5Q914.0625 153.515625 986.1328125 225.5859375T1099.21875 393.75Q1141.40625 489.84375 1141.40625 600T1099.21875 806.25Q1058.203125 902.34375 986.1328125 974.4140625T817.96875 1087.5Q721.875 1129.6875 611.71875 1129.6875zM904.6875 257.8125L576.5625 585.9375V952.734375H646.875V614.0625L953.90625 307.03125z" />
    <glyph glyph-name="close"
      unicode="&#xE606;"
      horiz-adv-x="1217.578125" d="M1205.859375 1144.921875L1156.640625 1194.140625L611.71875 649.21875L66.796875 1194.140625L17.578125 1144.921875L562.5 600L17.578125 55.078125L66.796875 5.859375L611.71875 550.78125L1156.640625 5.859375L1205.859375 55.078125L660.9375 600L1205.859375 1144.921875z" />
    <glyph glyph-name="coffeebeans"
      unicode="&#xE924;"
      horiz-adv-x="1492.96875" d="M417.1875 298.828125Q363.28125 298.828125 310.546875 318.1640625T208.59375 376.171875Q145.3125 426.5625 99.0234375 499.21875T30.46875 658.59375Q7.03125 751.171875 12.890625 839.0625Q19.921875 926.953125 50.9765625 999.0234375T135.9375 1122.65625Q188.671875 1173.046875 260.15625 1191.796875T404.296875 1191.796875Q475.78125 1173.046875 538.4765625 1125T649.21875 1003.125T720.703125 837.890625Q733.59375 786.328125 738.28125 734.765625Q741.796875 683.203125 736.5234375 634.5703125T717.1875 540.234375Q701.953125 494.53125 678.515625 454.6875Q644.53125 397.265625 596.484375 359.1796875T489.84375 305.859375Q472.265625 302.34375 454.1015625 300.5859375T417.1875 298.828125zM331.640625 1132.03125Q317.578125 1132.03125 304.6875 1130.2734375T277.734375 1125Q220.3125 1109.765625 178.125 1066.40625Q134.765625 1024.21875 110.15625 963.28125T82.03125 828.515625Q77.34375 754.6875 97.265625 676.171875Q117.1875 600 157.03125 536.1328125T250.78125 430.078125Q303.515625 387.890625 360.3515625 373.828125T472.265625 375Q516.796875 385.546875 554.296875 415.4296875T617.578125 489.84375Q657.421875 557.8125 666.796875 643.9453125T652.734375 820.3125Q635.15625 889.453125 602.34375 946.875Q569.53125 1003.125 526.7578125 1044.7265625T433.59375 1108.59375Q383.203125 1132.03125 331.640625 1132.03125zM453.515625 314.0625L398.4375 358.59375Q400.78125 360.9375 421.875 393.75Q441.796875 427.734375 451.171875 478.7109375T442.96875 592.96875Q426.5625 656.25 352.734375 721.875Q285.9375 780.46875 261.328125 847.265625Q237.890625 914.0625 240.234375 977.34375T264.84375 1094.53125Q285.9375 1148.4375 310.546875 1182.421875L366.796875 1143.75Q364.453125 1140.234375 344.53125 1103.90625Q323.4375 1067.578125 313.4765625 1013.671875T317.578125 895.3125Q331.640625 832.03125 397.265625 773.4375Q491.015625 692.578125 510.9375 610.546875Q532.03125 529.6875 519.140625 464.0625T480.46875 356.25Q454.6875 315.234375 453.515625 314.0625zM1050 0Q1024.21875 0 999.609375 4.6875T950.390625 18.75Q894.140625 39.84375 850.1953125 82.6171875T778.125 187.5Q759.375 229.6875 748.828125 276.5625Q739.453125 323.4375 739.453125 372.65625T747.65625 472.265625Q757.03125 522.65625 775.78125 571.875Q794.53125 622.265625 821.484375 666.796875Q848.4375 710.15625 881.25 747.0703125T951.5625 813.28125Q990.234375 842.578125 1032.421875 861.328125Q1093.359375 888.28125 1153.7109375 891.2109375T1270.3125 873.046875Q1326.5625 850.78125 1371.09375 808.0078125T1442.578125 704.296875Q1462.5 662.109375 1471.875 615.234375T1481.25 519.140625T1471.875 419.53125T1443.75 319.921875Q1416.796875 247.265625 1373.4375 188.671875Q1331.25 130.078125 1278.515625 87.890625T1167.1875 23.4375Q1108.59375 0 1050 0zM975 83.203125Q1030.078125 62.109375 1089.84375 72.65625T1204.6875 118.9453125T1305.46875 212.109375Q1351.171875 270.703125 1379.296875 345.703125Q1410.9375 431.25 1411.5234375 517.96875T1379.296875 676.171875Q1358.203125 725.390625 1323.6328125 758.7890625T1245.703125 808.59375T1154.8828125 822.0703125T1060.546875 798.046875Q989.0625 765.234375 931.0546875 699.0234375T840.234375 547.265625Q808.59375 461.71875 808.59375 373.828125T840.234375 214.453125Q862.5 166.40625 896.484375 133.0078125T975 83.203125zM923.4375 45.703125L905.859375 113.671875Q909.375 113.671875 944.53125 128.90625T1016.6015625 181.0546875T1075.78125 280.078125T1075.78125 437.109375Q1054.6875 523.828125 1073.4375 592.96875Q1092.1875 660.9375 1130.859375 711.328125T1217.578125 793.359375Q1266.796875 825 1305.46875 839.0625L1328.90625 774.609375Q1324.21875 773.4375 1286.71875 754.6875Q1250.390625 737.109375 1211.1328125 699.0234375T1146.09375 600Q1121.484375 539.0625 1142.578125 453.515625Q1171.875 333.984375 1141.40625 255.46875T1063.4765625 130.6640625T970.3125 65.625T923.4375 45.703125z" />
    <glyph glyph-name="coffeegrinder"
      unicode="&#xE925;"
      horiz-adv-x="1136.71875" d="M919.921875 0H159.375Q77.34375 0 44.53125 51.5625T11.71875 147.65625V372.65625Q11.71875 453.515625 63.28125 486.9140625T159.375 520.3125H919.921875Q1000.78125 520.3125 1034.1796875 468.75T1067.578125 372.65625V147.65625Q1067.578125 65.625 1016.015625 32.8125T919.921875 0zM159.375 447.65625Q145.3125 447.65625 114.84375 435.9375T84.375 372.65625V147.65625Q84.375 133.59375 96.09375 103.125T159.375 72.65625H919.921875Q932.8125 72.65625 963.8671875 84.375T994.921875 147.65625V372.65625Q994.921875 385.546875 983.203125 416.6015625T919.921875 447.65625H159.375zM539.0625 203.90625Q562.5 203.90625 578.3203125 220.3125T594.140625 260.15625Q594.140625 282.421875 578.3203125 298.828125T539.0625 315.234375Q516.796875 315.234375 500.390625 298.828125T483.984375 260.15625Q483.984375 236.71875 500.390625 220.3125T539.0625 203.90625zM540.234375 451.171875Q452.34375 451.171875 376.171875 485.15625Q298.828125 517.96875 241.40625 575.9765625T150 710.15625Q117.1875 787.5 117.1875 875.390625V915.234375H963.28125V875.390625Q963.28125 787.5 930.46875 710.15625Q897.65625 633.984375 839.6484375 575.9765625T705.46875 485.15625Q628.125 451.171875 540.234375 451.171875zM191.015625 842.578125Q196.875 775.78125 227.34375 717.1875Q256.640625 659.765625 303.515625 616.40625T411.328125 548.4375T540.234375 523.828125Q609.375 523.828125 669.140625 548.4375Q730.078125 573.046875 776.953125 616.40625T854.296875 717.1875Q883.59375 775.78125 889.453125 842.578125H191.015625zM539.0625 888.28125Q526.171875 888.28125 516.796875 897.65625T507.421875 921.09375V1068.75H1060.546875V1167.1875Q1060.546875 1181.25 1069.921875 1190.625T1093.359375 1200Q1106.25 1200 1115.625 1190.625T1125 1167.1875V1003.125H571.875V921.09375Q571.875 907.03125 562.5 897.65625T539.0625 888.28125z" />
    <glyph glyph-name="coins"
      unicode="&#xE903;"
      horiz-adv-x="1211.71875" d="M891.796875 826.171875Q892.96875 830.859375 893.5546875 836.1328125T894.140625 847.265625V1023.046875Q894.140625 1055.859375 871.875 1087.5Q848.4375 1119.140625 804.4921875 1144.3359375T693.75 1184.765625Q628.125 1200 541.40625 1200Q480.46875 1200 412.5 1189.453125T286.5234375 1157.2265625T191.015625 1102.734375Q152.34375 1068.75 152.34375 1023.046875V847.265625Q152.34375 792.1875 205.6640625 755.2734375T333.984375 698.4375Q331.640625 691.40625 330.46875 684.9609375T329.296875 670.3125V489.84375Q268.359375 467.578125 228.515625 433.59375T188.671875 352.734375V176.953125Q188.671875 131.25 226.171875 97.265625Q263.671875 64.453125 321.6796875 42.7734375T447.65625 10.546875T576.5625 0Q663.28125 0 728.90625 15.234375Q795.703125 30.46875 840.234375 55.6640625T907.03125 112.5T929.296875 176.953125V349.21875Q999.609375 376.171875 1035.3515625 414.2578125T1071.09375 494.53125V670.3125Q1071.09375 717.1875 1025.390625 759.9609375T891.796875 826.171875zM858.984375 176.953125Q858.984375 139.453125 779.8828125 104.8828125T576.5625 70.3125Q514.453125 70.3125 457.03125 80.859375Q399.609375 90.234375 355.6640625 105.46875T284.765625 139.453125Q258.984375 158.203125 258.984375 176.953125V249.609375Q318.75 212.109375 407.8125 194.53125T576.5625 176.953125Q673.828125 176.953125 744.140625 195.703125T858.984375 243.75V176.953125zM717.1875 317.578125H720.703125Q754.6875 317.578125 788.0859375 320.5078125T854.296875 329.296875Q828.515625 297.65625 754.6875 272.4609375T576.5625 247.265625Q514.453125 247.265625 457.03125 256.640625T355.6640625 281.25T284.765625 316.40625Q258.984375 335.15625 258.984375 352.734375Q258.984375 371.484375 285.9375 390.234375T358.59375 423.046875Q383.203125 397.265625 424.21875 377.34375Q466.40625 357.421875 515.625 343.9453125T617.578125 324.609375Q670.3125 317.578125 717.1875 317.578125zM999.609375 494.53125Q999.609375 474.609375 975 454.1015625T907.03125 417.1875Q898.828125 414.84375 890.0390625 411.9140625T871.875 406.640625T851.3671875 401.953125T829.6875 397.265625Q805.078125 392.578125 776.953125 390.234375T719.53125 387.890625H703.125Q632.8125 387.890625 566.015625 403.7109375T439.453125 447.65625Q431.25 452.34375 423.046875 459.375T407.8125 474.609375Q404.296875 479.296875 402.5390625 483.984375T399.609375 494.53125V567.1875Q420.703125 554.296875 444.7265625 543.75T494.53125 526.171875Q546.09375 510.9375 602.34375 502.734375T717.1875 494.53125H753.515625L788.671875 496.875Q847.265625 500.390625 901.171875 516.796875T1001.953125 562.5zM223.828125 847.265625V919.921875Q283.59375 882.421875 372.65625 864.84375T541.40625 847.265625Q637.5 847.265625 708.3984375 866.015625T823.828125 914.0625V840.234375Q820.3125 829.6875 814.453125 821.484375T800.390625 807.421875Q788.671875 798.046875 775.1953125 790.4296875T747.65625 776.953125Q703.125 759.375 653.90625 750T551.953125 740.625H499.21875Q480.46875 740.625 462.3046875 743.5546875T427.734375 748.828125Q416.015625 750 403.7109375 752.34375T379.6875 758.203125Q311.71875 774.609375 267.7734375 798.6328125T223.828125 847.265625zM823.828125 1023.046875Q823.828125 986.71875 744.7265625 952.1484375T541.40625 917.578125Q479.296875 917.578125 421.875 926.953125Q364.453125 937.5 320.5078125 952.734375T249.609375 986.71875Q223.828125 1005.46875 223.828125 1023.046875Q223.828125 1041.796875 249.609375 1060.546875Q276.5625 1079.296875 320.5078125 1094.53125T421.875 1119.140625Q479.296875 1129.6875 541.40625 1129.6875Q665.625 1129.6875 744.7265625 1095.1171875T823.828125 1023.046875zM541.40625 670.3125Q656.25 670.3125 734.765625 696.6796875T853.125 762.890625Q921.09375 746.484375 960.3515625 721.875T999.609375 670.3125Q999.609375 633.984375 920.5078125 599.4140625T717.1875 564.84375Q655.078125 564.84375 597.65625 574.21875T496.2890625 599.4140625T426.5625 633.984375Q399.609375 652.734375 399.609375 670.3125Q399.609375 673.828125 400.78125 676.7578125T403.125 683.203125Q434.765625 677.34375 469.3359375 673.828125T541.40625 670.3125z" />
    <glyph glyph-name="collapse"
      unicode="&#xE993;"
      horiz-adv-x="1223.4375" d="M11.71875 1150.78125L315.234375 847.265625H46.875V776.953125H434.765625V1164.84375H364.453125V896.484375L60.9375 1200L11.71875 1150.78125zM1211.71875 1150.78125L908.203125 847.265625H1176.5625V776.953125H788.671875V1164.84375H858.984375V896.484375L1162.5 1200zM11.71875 49.21875L315.234375 352.734375H46.875V423.046875H434.765625V35.15625H364.453125V303.515625L60.9375 0L11.71875 49.21875zM1211.71875 49.21875L908.203125 352.734375H1176.5625V423.046875H788.671875V35.15625H858.984375V303.515625L1162.5 0z" />
    <glyph glyph-name="comment"
      unicode="&#xE99A;"
      horiz-adv-x="1223.4375" d="M399.609375 0V282.421875H11.71875V1200H1211.71875V282.421875H682.03125zM82.03125 352.734375H471.09375V171.09375L652.734375 352.734375H1141.40625V1129.6875H82.03125V352.734375z" />
    <glyph glyph-name="compare"
      unicode="&#xE90D;"
      horiz-adv-x="1211.71875" d="M858.984375 1059.375H294.140625V0H1106.25V812.109375zM858.984375 952.734375L999.609375 812.109375H858.984375V952.734375zM1034.765625 70.3125H364.453125V987.890625H788.671875V740.625H1034.765625V70.3125zM682.03125 1200H117.1875V212.109375H188.671875V1129.6875H682.03125V1200z" />
    <glyph glyph-name="compressor"
      unicode="&#xE96C;"
      horiz-adv-x="1200" d="M470 700L610 840L644.9999999999999 805L504.9999999999999 665L469.9999999999999 700zM1100 750V850H1000V900H950V850H869.9999999999999C785 1055 550 1150 350 1070S45 750 130 545C170 445 250 365 350 325V250H295V200H350V100H450V200H550V100H650V200H695V250H650V325C750 365 830.0000000000001 445 869.9999999999999 550H950V495H1000V550H1100V650H1000V750H1100zM550 250H450V300H550V250zM725 500L695 530L660 495L690 465C645 425 585 405.0000000000001 525 400V450H475V400C415.0000000000001 405 355 425 310 465L340 495L305 530L275 500C230 550 205 610 200 675H250V725H200C205 785 230 840 270 890L305 850L340.0000000000001 885L305 925C355 965 415.0000000000001 995 475 1000V950H525V995C590 990 650 965 695 925L655 885L695 850L730 885C770 840 790 780 800 725H750V675H800C795 610 770 550 725 500zM950 650H900V750H950V650z" />
    <glyph glyph-name="cursor"
      unicode="&#xE9B2;"
      horiz-adv-x="1223.4375" d="M1081.640625 1069.921875L724.21875 202.734375L596.484375 584.765625L214.453125 712.5L1081.640625 1069.921875zM1211.71875 1200L11.71875 705.46875L541.40625 529.6875L717.1875 0z" />
    <glyph glyph-name="diamond"
      unicode="&#xE92D;"
      horiz-adv-x="1215.234375" d="M1161.328125 699.609375L712.5 1148.4375Q692.578125 1168.359375 666.2109375 1178.90625T612.890625 1189.453125Q584.765625 1189.453125 558.984375 1178.90625T512.109375 1148.4375L63.28125 699.609375Q22.265625 657.421875 22.265625 598.828125T63.28125 499.21875L512.109375 50.390625Q533.203125 29.296875 558.984375 18.75T612.890625 8.203125Q639.84375 8.203125 666.2109375 18.75T712.5 50.390625L1161.328125 499.21875Q1203.515625 540.234375 1203.515625 598.828125T1161.328125 699.609375zM1127.34375 533.203125L678.515625 84.375Q665.625 71.484375 648.6328125 64.453125T612.890625 57.421875T577.1484375 64.453125T546.09375 84.375L98.4375 533.203125Q84.375 546.09375 77.34375 563.0859375T70.3125 598.828125T77.34375 634.5703125T98.4375 665.625L546.09375 1113.28125Q560.15625 1127.34375 577.1484375 1134.375T612.890625 1141.40625T648.6328125 1134.375T678.515625 1113.28125L1127.34375 665.625Q1140.234375 651.5625 1147.265625 634.5703125T1154.296875 598.828125T1147.265625 563.0859375T1127.34375 533.203125z" />
    <glyph glyph-name="dispersion-trays"
      unicode="&#xE93A;"
      horiz-adv-x="1211.71875" d="M703.125 325.78125Q701.953125 328.125 700.78125 329.296875T699.609375 331.640625V922.265625H514.453125V330.46875H510.9375V325.78125L229.6875 43.359375H990.234375L703.125 325.78125zM262.5 56.25L525 318.75Q525 319.921875 526.171875 320.5078125T527.34375 322.265625Q528.515625 323.4375 529.1015625 325.78125T529.6875 330.46875V909.375H686.71875V333.984375Q686.71875 328.125 689.6484375 322.8515625T698.4375 315.234375L956.25 56.25H262.5zM1026.5625 44.53125Q1024.21875 46.875 1024.21875 49.21875T1021.875 52.734375L727.734375 343.359375V930.46875Q727.734375 938.671875 721.875 944.53125T707.8125 950.390625H508.59375Q499.21875 950.390625 493.359375 944.53125T487.5 930.46875V341.015625L199.21875 50.390625Q198.046875 49.21875 196.875 47.4609375T195.703125 43.359375Q194.53125 42.1875 193.9453125 39.84375T193.359375 35.15625Q193.359375 33.984375 193.9453125 31.640625T195.703125 28.125Q195.703125 26.953125 196.2890625 25.78125L196.875 24.609375L201.5625 21.09375Q202.734375 21.09375 203.3203125 19.921875T205.078125 18.75Q206.25 17.578125 208.59375 16.9921875T212.109375 16.40625H1005.46875Q1007.8125 16.40625 1010.15625 16.9921875T1014.84375 18.75Q1016.015625 18.75 1016.6015625 19.921875T1018.359375 21.09375H1024.21875V24.609375Q1025.390625 25.78125 1025.9765625 26.953125T1026.5625 30.46875Q1027.734375 31.640625 1027.734375 33.984375V40.4296875L1026.5625 44.53125zM1012.5 33.984375H1008.984375V30.46875H212.109375V33.984375H208.59375V38.671875L210.9375 39.84375L502.734375 333.984375V930.46875Q502.734375 932.8125 504.4921875 935.15625T510.9375 937.5H708.984375Q712.5 937.5 714.84375 935.15625T717.1875 930.46875V337.5L1014.84375 41.015625L1016.015625 40.4296875L1017.1875 39.84375V37.5Q1014.84375 36.328125 1014.84375 35.15625T1012.5 33.984375zM393.75 384.375Q407.8125 384.375 423.046875 386.1328125T452.34375 391.40625Q460.546875 394.921875 464.6484375 401.953125T467.578125 416.015625Q466.40625 420.703125 463.4765625 423.6328125L458.203125 428.90625Q453.515625 431.25 450.5859375 431.8359375T442.96875 431.25Q399.609375 419.53125 355.6640625 428.3203125T276.5625 465.234375Q239.0625 493.359375 220.3125 533.7890625T201.5625 618.75Q201.5625 673.828125 230.2734375 720.1171875T308.203125 791.015625Q315.234375 794.53125 318.1640625 801.5625T318.75 815.625Q314.0625 832.03125 311.1328125 850.1953125T308.203125 887.109375Q308.203125 938.671875 326.953125 983.203125Q346.875 1028.90625 380.2734375 1062.3046875T459.375 1114.453125Q503.90625 1134.375 555.46875 1134.375Q645.703125 1134.375 714.84375 1076.3671875T799.21875 930.46875Q800.390625 924.609375 804.4921875 920.5078125T814.453125 912.890625Q857.8125 898.828125 884.765625 861.9140625T911.71875 780.46875Q911.71875 721.875 871.2890625 681.4453125T773.4375 639.84375Q768.75 639.84375 764.6484375 638.0859375T758.203125 633.984375Q754.6875 630.46875 753.515625 626.953125T752.34375 618.75Q752.34375 610.546875 758.203125 604.1015625T773.4375 597.65625Q847.265625 597.65625 900 651.5625T952.734375 780.46875Q952.734375 836.71875 921.6796875 882.421875T839.0625 949.21875Q828.515625 998.4375 801.5625 1039.453125Q775.78125 1081.640625 738.28125 1111.5234375T653.90625 1158.984375Q608.203125 1175.390625 557.8125 1175.390625Q498.046875 1175.390625 445.3125 1153.125Q392.578125 1129.6875 353.3203125 1091.015625T291.796875 999.609375Q268.359375 946.875 268.359375 887.109375Q268.359375 869.53125 270.1171875 853.125T276.5625 821.484375Q222.65625 788.671875 192.1875 735.3515625T161.71875 618.75Q160.546875 570.703125 178.125 528.515625Q195.703125 485.15625 227.9296875 453.515625T302.34375 403.125Q345.703125 384.375 393.75 384.375zM285.9375 812.109375L289.453125 813.28125L287.109375 819.140625Q283.59375 836.71875 280.6640625 853.125T277.734375 887.109375Q278.90625 943.359375 301.171875 993.75Q322.265625 1044.140625 359.765625 1081.640625T447.65625 1140.234375Q496.875 1162.5 553.125 1162.5Q602.34375 1162.5 646.875 1146.09375T727.1484375 1100.390625T787.5 1031.25T821.484375 943.359375V939.84375L825 937.5Q874.21875 918.75 904.1015625 875.9765625T933.984375 780.46875Q933.984375 711.328125 885.3515625 662.109375T767.578125 612.890625Q764.0625 612.890625 761.71875 615.234375T759.375 621.09375Q759.375 622.265625 759.9609375 623.4375T761.71875 625.78125Q762.890625 628.125 764.6484375 628.125H767.578125Q830.859375 628.125 874.8046875 673.2421875T918.75 781.640625Q918.75 832.03125 889.453125 872.4609375T812.109375 928.125Q810.9375 928.125 809.765625 930.46875T808.59375 933.984375Q801.5625 979.6875 779.296875 1019.53125Q755.859375 1059.375 721.875 1088.0859375T644.53125 1133.203125T553.125 1149.609375Q500.390625 1149.609375 452.34375 1128.515625Q405.46875 1107.421875 369.7265625 1072.265625T314.0625 989.0625Q292.96875 941.015625 292.96875 887.109375Q292.96875 868.359375 295.8984375 849.0234375T304.6875 812.109375Q305.859375 808.59375 304.6875 806.25T300 803.90625Q247.265625 778.125 216.796875 727.734375T186.328125 618.75Q186.328125 569.53125 207.421875 527.34375T267.1875 453.515625Q304.6875 424.21875 351.5625 414.84375T445.3125 418.359375H450Q452.34375 417.1875 452.34375 416.6015625T454.6875 414.84375Q455.859375 411.328125 453.515625 408.984375T448.828125 406.640625Q434.765625 403.125 420.703125 401.3671875T392.578125 399.609375Q301.171875 399.609375 236.1328125 464.6484375T171.09375 621.09375Q172.265625 680.859375 202.1484375 731.8359375T285.9375 812.109375z" />
    <glyph glyph-name="down"
      unicode="&#xE90F;"
      horiz-adv-x="1223.4375" d="M1211.71875 919.921875L611.71875 233.203125L11.71875 919.921875L64.453125 966.796875L611.71875 339.84375L1158.984375 966.796875z" />
    <glyph glyph-name="download"
      unicode="&#xE907;"
      horiz-adv-x="1223.4375" d="M1141.40625 282.421875V70.3125H82.03125V282.421875H11.71875V0H1211.71875V282.421875H1141.40625zM960.9375 596.484375L910.546875 645.703125L646.875 387.890625V1200H576.5625V387.890625L312.890625 645.703125L262.5 596.484375L611.71875 247.265625L960.9375 596.484375z" />
    <glyph glyph-name="e-alphabet"
      unicode="&#xE92F;"
      horiz-adv-x="1209.375" d="M607.03125 1189.453125Q485.15625 1189.453125 377.34375 1143.75Q269.53125 1096.875 189.2578125 1016.6015625T63.28125 829.6875Q16.40625 721.875 16.40625 600Q16.40625 476.953125 63.28125 369.140625Q108.984375 262.5 189.2578125 182.2265625T377.34375 55.078125Q485.15625 9.375 607.03125 9.375T836.71875 55.078125Q944.53125 101.953125 1024.8046875 182.2265625T1150.78125 369.140625Q1197.65625 476.953125 1197.65625 600Q1197.65625 721.875 1150.78125 829.6875Q1105.078125 936.328125 1024.8046875 1016.6015625T836.71875 1143.75Q728.90625 1189.453125 607.03125 1189.453125zM607.03125 62.109375Q495.703125 62.109375 398.4375 104.296875Q300 146.484375 226.7578125 219.7265625T111.328125 390.234375Q69.140625 488.671875 69.140625 600Q69.140625 710.15625 111.328125 808.59375T226.7578125 979.6875T398.4375 1094.53125Q495.703125 1136.71875 607.03125 1136.71875T815.625 1094.53125Q914.0625 1052.34375 987.3046875 979.6875T1102.734375 808.59375T1144.921875 600Q1144.921875 488.671875 1102.734375 390.234375Q1060.546875 292.96875 987.3046875 219.7265625T815.625 104.296875Q718.359375 62.109375 607.03125 62.109375zM492.1875 561.328125H814.453125V669.140625H492.1875V812.109375H839.0625V919.921875H363.28125V278.90625H850.78125V386.71875H492.1875V561.328125z" />
    <glyph glyph-name="earth"
      unicode="&#xE929;"
      horiz-adv-x="1223.4375" d="M611.71875 1200Q735.9375 1200 844.921875 1153.125Q955.078125 1106.25 1036.5234375 1024.8046875T1164.84375 833.203125Q1211.71875 724.21875 1211.71875 600T1164.84375 366.796875Q1117.96875 256.640625 1036.5234375 175.1953125T844.921875 46.875Q735.9375 0 611.71875 0T378.515625 46.875Q268.359375 93.75 186.9140625 175.1953125T58.59375 366.796875Q11.71875 475.78125 11.71875 600T58.59375 833.203125Q105.46875 943.359375 186.9140625 1024.8046875T378.515625 1153.125Q487.5 1200 611.71875 1200zM741.796875 399.609375H481.640625Q498.046875 317.578125 531.4453125 246.09375T612.890625 113.671875L611.71875 114.84375Q655.078125 175.78125 687.890625 246.6796875T740.625 393.75L741.796875 399.609375zM382.03125 399.609375H151.171875Q174.609375 346.875 209.765625 300Q243.75 254.296875 287.109375 217.96875T380.859375 154.6875Q431.25 128.90625 488.671875 116.015625L492.1875 114.84375Q452.34375 175.78125 424.21875 246.6796875T382.03125 394.921875V399.609375zM1072.265625 399.609375H841.40625Q826.171875 319.921875 797.4609375 247.8515625T730.078125 111.328125L731.25 114.84375Q788.671875 130.078125 839.0625 157.03125Q890.625 183.984375 933.984375 220.3125T1011.328125 301.171875Q1046.484375 345.703125 1069.921875 397.265625L1072.265625 399.609375zM371.484375 699.609375H121.875Q116.015625 677.34375 113.0859375 652.1484375T110.15625 600T113.0859375 547.265625T121.875 496.875V500.390625H366.796875Q365.625 517.96875 364.453125 537.890625T363.28125 577.734375Q363.28125 610.546875 365.625 642.1875T372.65625 704.296875L371.484375 699.609375zM751.171875 699.609375H472.265625Q467.578125 672.65625 465.234375 641.6015625T462.890625 577.734375Q462.890625 557.8125 464.0625 537.3046875T466.40625 496.875V500.390625H757.03125Q758.203125 517.96875 759.375 537.890625T760.546875 577.734375Q760.546875 610.546875 758.203125 642.1875T751.171875 704.296875V699.609375zM1101.5625 699.609375H851.953125Q854.296875 677.34375 856.0546875 652.1484375T857.8125 600T856.0546875 547.265625T850.78125 495.703125L851.953125 500.390625H1096.875Q1103.90625 525 1108.0078125 552.5390625T1112.109375 609.375Q1112.109375 633.984375 1109.1796875 656.8359375T1101.5625 703.125V699.609375zM492.1875 1085.15625Q434.765625 1069.921875 383.203125 1044.140625Q331.640625 1017.1875 288.8671875 980.859375T210.9375 900Q176.953125 854.296875 153.515625 802.734375L151.171875 800.390625H386.71875Q404.296875 881.25 431.25 952.734375T494.53125 1091.015625zM611.71875 1089.84375Q571.875 1027.734375 540.234375 956.25T488.671875 807.421875L486.328125 800.390625H731.25Q711.328125 882.421875 680.859375 955.6640625T609.375 1094.53125L611.71875 1089.84375zM731.25 1085.15625Q766.40625 1023.046875 792.7734375 952.734375T835.546875 806.25L836.71875 800.390625H1072.265625Q1047.65625 853.125 1012.5 898.828125Q978.515625 943.359375 935.15625 980.2734375T841.40625 1042.96875Q791.015625 1069.921875 734.765625 1083.984375z" />
    <glyph glyph-name="emissions"
      unicode="&#xE93B;"
      horiz-adv-x="1211.71875" d="M987.890625 377.34375Q986.71875 378.515625 956.25 405.46875Q924.609375 430.078125 887.109375 481.640625T819.140625 610.546875Q787.5 687.890625 787.5 791.015625Q787.5 793.359375 785.15625 795.703125Q782.8125 799.21875 779.296875 799.21875H644.53125Q641.015625 799.21875 638.671875 795.703125Q636.328125 793.359375 636.328125 791.015625Q636.328125 754.6875 630.46875 720.703125Q625.78125 686.71875 617.578125 656.25Q610.546875 625.78125 600 598.828125T576.5625 547.265625Q560.15625 589.453125 550.78125 635.15625Q541.40625 679.6875 541.40625 727.734375Q541.40625 731.25 539.0625 733.59375T533.203125 735.9375H410.15625Q407.8125 735.9375 405.46875 733.59375Q401.953125 731.25 401.953125 727.734375Q401.953125 636.328125 375 568.359375Q346.875 499.21875 312.890625 453.515625Q280.078125 407.8125 251.953125 384.375T222.65625 360.9375V358.59375Q221.484375 356.25 221.484375 355.078125V228.515625Q221.484375 225 223.828125 222.65625T229.6875 220.3125H983.203125Q986.71875 220.3125 989.0625 222.65625T991.40625 228.515625V375Q990.234375 376.171875 987.890625 377.34375zM237.890625 350.390625Q247.265625 358.59375 275.390625 384.375Q304.6875 411.328125 336.328125 457.03125Q366.796875 503.90625 392.578125 569.53125Q417.1875 636.328125 419.53125 721.875H525Q526.171875 672.65625 536.71875 624.609375Q546.09375 575.390625 566.015625 529.6875Q522.65625 453.515625 479.296875 416.015625Q434.765625 377.34375 433.59375 377.34375Q431.25 376.171875 430.078125 375V236.71875H237.890625V350.390625zM975 236.71875H446.484375V366.796875Q459.375 377.34375 500.390625 416.015625Q542.578125 453.515625 581.25 526.171875V528.515625Q594.140625 553.125 607.03125 580.078125Q618.75 608.203125 628.125 639.84375Q637.5 672.65625 642.1875 707.8125Q648.046875 742.96875 648.046875 781.640625H768.75Q771.09375 685.546875 799.21875 611.71875Q827.34375 536.71875 862.5 485.15625Q897.65625 432.421875 930.46875 403.125T972.65625 365.625V236.71875H975zM658.59375 860.15625Q659.765625 857.8125 660.9375 857.8125H667.96875L669.140625 860.15625Q671.484375 861.328125 672.65625 864.84375Q672.65625 868.359375 671.484375 869.53125L664.453125 884.765625L671.484375 917.578125Q686.71875 937.5 683.203125 957.421875Q678.515625 977.34375 671.484375 986.71875Q669.140625 990.234375 665.625 990.234375T660.9375 989.0625Q657.421875 986.71875 657.421875 983.203125T658.59375 978.515625Q658.59375 976.171875 665.625 960.9375T658.59375 928.125Q642.1875 908.203125 646.875 888.28125Q650.390625 868.359375 658.59375 860.15625zM708.984375 860.15625Q710.15625 857.8125 711.328125 857.8125H717.1875L718.359375 860.15625Q721.875 861.328125 721.875 863.671875T720.703125 869.53125L713.671875 884.765625Q707.8125 900 720.703125 917.578125Q737.109375 937.5 732.421875 957.421875Q728.90625 977.34375 720.703125 986.71875Q718.359375 990.234375 714.84375 990.234375T708.984375 987.890625Q705.46875 986.71875 705.46875 983.203125T706.640625 978.515625Q706.640625 976.171875 713.671875 960.9375T706.640625 928.125Q690.234375 908.203125 696.09375 888.28125Q700.78125 868.359375 708.984375 860.15625zM755.859375 860.15625Q758.203125 857.8125 759.375 857.8125H765.234375L766.40625 860.15625Q769.921875 861.328125 769.921875 864.84375Q771.09375 868.359375 768.75 869.53125L761.71875 884.765625L768.75 917.578125Q785.15625 937.5 780.46875 957.421875Q776.953125 977.34375 768.75 986.71875Q767.578125 990.234375 764.0625 990.234375Q761.71875 990.234375 758.203125 989.0625Q755.859375 986.71875 754.6875 983.203125Q754.6875 979.6875 755.859375 978.515625Q755.859375 976.171875 762.890625 960.9375Q771.09375 945.703125 755.859375 928.125Q741.796875 908.203125 745.3125 888.28125Q750 868.359375 755.859375 860.15625zM423.046875 791.015625L426.5625 787.5L430.078125 786.328125H432.421875L433.59375 788.671875Q435.9375 791.015625 437.109375 793.359375Q437.109375 796.875 435.9375 799.21875L428.90625 812.109375Q423.046875 825 435.9375 841.40625Q450 860.15625 445.3125 877.734375Q441.796875 895.3125 435.9375 903.515625Q433.59375 905.859375 431.25 907.03125Q427.734375 908.203125 425.390625 905.859375Q421.875 903.515625 421.875 901.171875Q420.703125 897.65625 423.046875 895.3125L428.90625 881.25Q435.9375 866.015625 423.046875 851.953125Q408.984375 834.375 412.5 816.796875Q417.1875 799.21875 423.046875 791.015625zM468.75 791.015625Q469.921875 788.671875 472.265625 788.671875H478.125L479.296875 791.015625Q482.8125 792.1875 482.8125 795.703125T481.640625 801.5625L474.609375 814.453125Q468.75 827.34375 481.640625 843.75Q495.703125 861.328125 492.1875 878.90625Q487.5 897.65625 481.640625 905.859375Q480.46875 908.203125 475.78125 908.203125Q472.265625 908.203125 471.09375 907.03125Q467.578125 905.859375 467.578125 902.34375T468.75 896.484375L474.609375 882.421875Q481.640625 868.359375 468.75 853.125Q453.515625 834.375 458.203125 816.796875T468.75 791.015625zM512.109375 791.015625Q514.453125 788.671875 515.625 788.671875H521.484375L522.65625 791.015625Q526.171875 792.1875 526.171875 795.703125T525 801.5625L519.140625 814.453125Q512.109375 827.34375 525 843.75Q539.0625 861.328125 535.546875 878.90625Q530.859375 897.65625 525 905.859375Q523.828125 908.203125 520.3125 908.203125Q515.625 908.203125 514.453125 907.03125Q512.109375 905.859375 510.9375 902.34375Q510.9375 898.828125 512.109375 896.484375L519.140625 882.421875Q525 868.359375 512.109375 853.125Q499.21875 834.375 502.734375 816.796875T512.109375 791.015625z" />
    <glyph glyph-name="engines"
      unicode="&#xE96D;"
      horiz-adv-x="1200" d="M850 750V550H800V850H575V1000H700V950H800V1100H250V950H350V1000H475V850H250V550H200V700H100V300H200V450H250V200H400L500 150H800V450H850V250H1100V750H850zM700 250H525L445 290L425 300H350V750H700V250zM1000 350H950V650H1000V350zM430 485L410 465L464.9999999999999 415L489.9999999999999 435V400H565V430L585 410L640 460L615 480H649.9999999999999V560H619.9999999999999L644.9999999999999 580L590 630L569.9999999999999 610V650H484.9999999999999V620L459.9999999999999 640L405 590L425 570H400V495H430V485zM525 550C540 550 550 540 550 525S540 500 525 500S500 510 500 525S509.9999999999999 550 525 550z" />
    <glyph glyph-name="environmental-catalysts"
      unicode="&#xE93F;"
      horiz-adv-x="1269.140625" d="M610.546875 169.921875Q615.234375 169.921875 619.3359375 174.609375T623.4375 183.984375V261.328125Q731.25 266.015625 752.34375 331.0546875L773.4375 396.09375Q773.4375 476.953125 753.515625 576.5625Q732.421875 676.171875 706.640625 766.9921875T656.25 926.953125T623.4375 1016.015625Q623.4375 1020.703125 621.6796875 1023.6328125T616.40625 1030.078125H603.515625Q597.65625 1026.5625 597.0703125 1023.6328125T596.484375 1016.015625Q588.28125 996.09375 563.671875 926.953125T513.28125 766.9921875T466.40625 576.5625Q446.484375 476.953125 446.484375 396.09375L467.578125 331.0546875L596.484375 261.328125V183.984375Q598.828125 179.296875 601.7578125 174.609375T610.546875 169.921875zM474.609375 396.09375Q474.609375 465.234375 491.015625 550.78125T529.1015625 718.359375T574.21875 869.53125Q596.484375 939.84375 610.546875 977.34375Q624.609375 939.84375 648.046875 869.53125Q671.484375 800.390625 693.75 718.359375T731.25 550.78125T745.3125 396.09375Q745.3125 393.75 727.734375 342.1875T623.4375 284.765625V341.015625L697.265625 413.671875Q699.609375 416.015625 699.609375 422.4609375T697.265625 431.25Q693.75 433.59375 687.890625 433.59375T679.6875 431.25L626.953125 379.6875V496.875L700.78125 570.703125Q703.125 573.046875 703.125 578.90625T700.78125 588.28125Q697.265625 590.625 691.40625 590.625T683.203125 588.28125L630.46875 535.546875V629.296875Q630.46875 635.15625 626.3671875 639.2578125T616.40625 643.359375Q611.71875 643.359375 607.6171875 639.2578125T603.515625 629.296875V469.921875L550.78125 521.484375Q548.4375 523.828125 541.9921875 523.828125T533.203125 521.484375T530.859375 513.28125T533.203125 503.90625L607.03125 431.25V284.765625Q512.109375 290.625 493.359375 342.1875T474.609375 396.09375zM1250.390625 254.296875L1093.359375 243.75Q1122.65625 282.421875 1143.75 324.609375Q1166.015625 366.796875 1181.25 411.9140625T1203.515625 505.078125Q1211.71875 551.953125 1211.71875 601.171875Q1211.71875 725.390625 1164.84375 834.375T1036.5234375 1024.8046875T844.921875 1153.125T610.546875 1200T377.34375 1153.125T186.9140625 1024.8046875T58.59375 833.203125T11.71875 598.828125T58.59375 365.625T186.9140625 175.1953125T377.34375 46.875T610.546875 0Q675 0 737.109375 12.890625T856.640625 52.734375Q862.5 55.078125 864.2578125 59.765625T863.671875 69.140625Q861.328125 75 856.640625 77.34375T846.09375 76.171875Q792.1875 50.390625 732.421875 37.5T610.546875 24.609375Q491.015625 24.609375 386.71875 69.140625Q282.421875 114.84375 204.4921875 192.7734375T80.859375 375Q36.328125 479.296875 36.328125 598.828125Q36.328125 717.1875 80.859375 821.484375Q126.5625 925.78125 204.4921875 1003.7109375T386.71875 1127.34375Q491.015625 1171.875 610.546875 1171.875Q728.90625 1171.875 833.203125 1127.34375Q937.5 1081.640625 1015.4296875 1003.7109375T1139.0625 821.484375Q1183.59375 717.1875 1183.59375 598.828125Q1183.59375 549.609375 1176.5625 502.734375Q1168.359375 457.03125 1153.125 412.5T1114.453125 325.78125Q1092.1875 284.765625 1061.71875 247.265625L1047.65625 420.703125Q1047.65625 426.5625 1043.5546875 430.078125T1034.765625 431.25Q1028.90625 431.25 1024.8046875 427.1484375T1024.21875 417.1875L1038.28125 222.65625Q1038.28125 220.3125 1040.0390625 217.3828125T1041.796875 212.109375Q1044.140625 209.765625 1045.8984375 209.1796875L1047.65625 208.59375L1243.359375 222.65625Q1248.046875 222.65625 1252.1484375 226.7578125T1253.90625 236.71875Q1258.59375 244.921875 1256.8359375 249.609375T1250.390625 254.296875z" />
    <glyph glyph-name="exclamation"
      unicode="&#xE9AB;"
      horiz-adv-x="1223.4375" d="M576.5625 917.578125H646.875V459.375H576.5625V917.578125zM664.453125 322.265625Q664.453125 300 649.21875 284.1796875T611.71875 268.359375T574.21875 284.1796875T558.984375 322.265625Q558.984375 343.359375 574.21875 359.1796875T611.71875 375T649.21875 359.1796875T664.453125 322.265625zM1141.40625 1129.6875V70.3125H82.03125V1129.6875H1141.40625zM1211.71875 1200H11.71875V0H1211.71875V1200z" />
    <glyph glyph-name="expand"
      unicode="&#xE992;"
      horiz-adv-x="1223.4375" d="M434.765625 826.171875L132.421875 1129.6875H399.609375V1200H11.71875V812.109375H82.03125V1079.296875L385.546875 776.953125L434.765625 826.171875zM788.671875 826.171875L1091.015625 1129.6875H823.828125V1200H1211.71875V812.109375H1141.40625V1079.296875L837.890625 776.953125zM434.765625 373.828125L132.421875 70.3125H399.609375V0H11.71875V387.890625H82.03125V120.703125L385.546875 423.046875L434.765625 373.828125zM788.671875 373.828125L1091.015625 70.3125H823.828125V0H1211.71875V387.890625H1141.40625V120.703125L837.890625 423.046875z" />
    <glyph glyph-name="eye"
      unicode="&#xE916;"
      horiz-adv-x="1223.4375" d="M611.71875 229.6875Q489.84375 229.6875 384.375 280.078125Q280.078125 330.46875 201.5625 392.578125T77.34375 507.421875Q30.46875 560.15625 26.953125 564.84375L11.71875 585.9375L25.78125 605.859375Q29.296875 611.71875 76.171875 669.140625Q121.875 726.5625 200.390625 793.9453125T384.375 915.234375Q489.84375 970.3125 611.71875 970.3125T839.0625 915.234375Q944.53125 861.328125 1023.046875 793.9453125T1147.265625 669.140625Q1194.140625 611.71875 1197.65625 605.859375L1211.71875 585.9375L1196.484375 566.015625Q1192.96875 561.328125 1146.09375 508.59375Q1100.390625 454.6875 1021.875 393.1640625T839.0625 280.078125Q733.59375 229.6875 611.71875 229.6875zM94.921875 582.421875Q117.1875 557.8125 165.234375 510.9375Q214.453125 462.890625 282.421875 416.6015625T434.765625 335.15625T611.71875 300T788.671875 335.15625T941.015625 416.6015625T1058.203125 510.9375Q1106.25 557.8125 1128.515625 582.421875Q1106.25 609.375 1058.203125 662.109375Q1010.15625 716.015625 942.1875 768.75T789.84375 860.15625Q705.46875 900 611.71875 900T433.59375 860.15625Q349.21875 821.484375 281.25 768.75T165.234375 662.109375Q117.1875 609.375 94.921875 582.421875zM611.71875 433.59375Q543.75 433.59375 496.2890625 481.0546875T448.828125 596.484375Q448.828125 663.28125 496.2890625 711.328125T611.71875 759.375T727.1484375 711.328125T774.609375 596.484375Q774.609375 528.515625 727.1484375 481.0546875T611.71875 433.59375zM611.71875 693.75Q571.875 693.75 543.1640625 665.0390625T514.453125 596.484375T543.1640625 527.9296875T611.71875 499.21875T680.2734375 527.9296875T708.984375 596.484375Q707.8125 636.328125 679.6875 664.453125T611.71875 693.75z" />
    <glyph glyph-name="fastbackward"
      unicode="&#xE98E;"
      horiz-adv-x="1223.4375" d="M745.3125 1147.265625L699.609375 1200L11.71875 600L699.609375 0L745.3125 52.734375L119.53125 600L745.3125 1147.265625zM1211.71875 1147.265625L1166.015625 1200L478.125 600L1166.015625 0L1211.71875 52.734375L584.765625 600L1211.71875 1147.265625z" />
    <glyph glyph-name="fastdown"
      unicode="&#xE991;"
      horiz-adv-x="1223.4375" d="M1211.71875 686.71875L611.71875 0L11.71875 686.71875L64.453125 733.59375L611.71875 107.8125L1158.984375 733.59375L1211.71875 686.71875zM1211.71875 1153.125L611.71875 466.40625L11.71875 1153.125L64.453125 1200L611.71875 573.046875L1158.984375 1200z" />
    <glyph glyph-name="fastforward"
      unicode="&#xE98F;"
      horiz-adv-x="1223.4375" d="M523.828125 1200L478.125 1147.265625L1103.90625 600L478.125 52.734375L523.828125 0L1211.71875 600L523.828125 1200zM57.421875 1200L11.71875 1147.265625L638.671875 600L11.71875 52.734375L57.421875 0L745.3125 600L57.421875 1200z" />
    <glyph glyph-name="fastup"
      unicode="&#xE990;"
      horiz-adv-x="1223.4375" d="M11.71875 512.109375L611.71875 1200L1211.71875 512.109375L1158.984375 466.40625L611.71875 1092.1875L64.453125 466.40625L11.71875 512.109375zM11.71875 45.703125L611.71875 733.59375L1211.71875 45.703125L1158.984375 0L611.71875 626.953125L64.453125 0L11.71875 45.703125z" />
    <glyph glyph-name="file"
      unicode="&#xE9A5;"
      horiz-adv-x="1211.71875" d="M717.1875 1200H152.34375V0H1071.09375V847.265625zM717.1875 1100.390625L970.3125 847.265625H717.1875V1100.390625zM223.828125 70.3125V1129.6875H646.875V776.953125H999.609375V70.3125H223.828125z" />
    <glyph glyph-name="forward"
      unicode="&#xE607;"
      horiz-adv-x="1211.71875" d="M255.46875 0L209.765625 52.734375L836.71875 600L209.765625 1147.265625L255.46875 1200L943.359375 600z" />
    <glyph glyph-name="fuels"
      unicode="&#xE608;"
      horiz-adv-x="1219.921875" d="M1184.765625 788.671875L1208.203125 814.453125L1156.640625 861.328125L1133.203125 835.546875Q1127.34375 829.6875 1106.25 803.90625T1061.1328125 742.96875T1018.359375 666.796875T999.609375 590.625V137.109375Q998.4375 108.984375 977.9296875 89.6484375T929.296875 70.3125Q900 71.484375 879.4921875 91.9921875T858.984375 140.625V882.421875Q858.984375 926.953125 828.515625 968.5546875T752.34375 1010.15625H717.1875V1200H82.03125V70.3125H46.875V0H752.34375V70.3125H717.1875V938.671875H752.34375Q764.0625 938.671875 776.3671875 921.09375T788.671875 882.421875V140.625Q788.671875 83.203125 829.6875 42.1875T929.296875 0Q986.71875 0 1027.734375 39.84375T1071.09375 137.109375V282.421875H1176.5625V564.84375H1071.09375V590.625Q1071.09375 629.296875 1111.5234375 690.234375T1184.765625 788.671875zM152.34375 70.3125V1129.6875H646.875V70.3125H152.34375zM1106.25 352.734375H1071.09375V494.53125H1106.25V352.734375zM223.828125 740.625H576.5625V1059.375H223.828125V740.625zM294.140625 987.890625H506.25V812.109375H294.140625V987.890625z" />
    <glyph glyph-name="fullscreen"
      unicode="&#xE609;"
      horiz-adv-x="1223.4375" d="M929.296875 987.890625H1141.40625V776.953125H1211.71875V1059.375H929.296875V987.890625zM82.03125 776.953125V987.890625H294.140625V1059.375H11.71875V776.953125H82.03125zM294.140625 212.109375H82.03125V423.046875H11.71875V140.625H294.140625V212.109375zM1141.40625 423.046875V212.109375H929.296875V140.625H1211.71875V423.046875H1141.40625z" />
    <glyph glyph-name="funnel"
      unicode="&#xE60A;"
      horiz-adv-x="1223.4375" d="M1067.578125 1129.6875L699.609375 670.3125L682.03125 651.5625V278.90625L541.40625 155.859375V651.5625L526.171875 670.3125L158.203125 1129.6875H1071.09375H1067.578125zM1211.71875 1200H11.71875L471.09375 626.953125V0L752.34375 247.265625V626.953125L1211.71875 1200z" />
    <glyph glyph-name="gas-processing"
      unicode="&#xE931;"
      horiz-adv-x="1218.75" d="M1074.609375 849.609375Q1067.578125 849.609375 1062.3046875 844.3359375T1057.03125 832.03125V35.15625H626.953125V482.8125Q626.953125 489.84375 621.6796875 495.1171875T609.375 500.390625T597.0703125 495.1171875T591.796875 482.8125V17.578125Q591.796875 10.546875 597.0703125 5.2734375T609.375 0H1074.609375Q1081.640625 0 1086.9140625 5.2734375T1092.1875 17.578125V832.03125Q1092.1875 839.0625 1086.9140625 844.3359375T1074.609375 849.609375zM870.703125 597.65625V774.609375Q870.703125 781.640625 865.4296875 786.9140625T853.125 792.1875H383.203125Q377.34375 792.1875 371.484375 786.9140625T365.625 774.609375V597.65625Q365.625 590.625 371.484375 585.3515625T383.203125 580.078125H853.125Q860.15625 583.59375 865.4296875 587.109375T870.703125 597.65625zM840.234375 615.234375H401.953125V761.71875H840.234375V615.234375zM260.15625 266.015625H29.296875Q22.265625 266.015625 16.9921875 260.15625T11.71875 248.4375V12.890625Q11.71875 7.03125 16.9921875 1.171875T29.296875 -4.6875H263.671875Q270.703125 -4.6875 275.9765625 1.171875T281.25 12.890625V248.4375Q278.90625 257.8125 272.4609375 261.9140625T260.15625 266.015625zM246.09375 35.15625H46.875V234.375H246.09375V35.15625zM144.140625 350.390625Q151.171875 350.390625 156.4453125 355.6640625T161.71875 367.96875V1164.84375H604.6875V876.5625Q604.6875 869.53125 610.546875 864.2578125T622.265625 858.984375Q629.296875 858.984375 635.15625 864.2578125T641.015625 876.5625V1182.421875Q641.015625 1189.453125 635.15625 1194.7265625T622.265625 1200H144.140625Q138.28125 1200 132.421875 1194.7265625T126.5625 1182.421875V367.96875Q126.5625 360.9375 132.421875 355.6640625T144.140625 350.390625zM1074.609375 1200Q1018.359375 1200 980.2734375 1160.15625T942.1875 1067.578125Q942.1875 1013.671875 982.03125 973.828125T1074.609375 933.984375T1167.1875 973.828125T1207.03125 1067.578125Q1207.03125 1120.3125 1168.9453125 1160.15625T1074.609375 1200zM1074.609375 965.625Q1031.25 965.625 1001.953125 994.921875T972.65625 1067.578125Q972.65625 1109.765625 1001.953125 1139.6484375T1074.609375 1169.53125T1147.265625 1139.6484375T1176.5625 1067.578125Q1176.5625 1024.21875 1147.265625 994.921875T1074.609375 965.625z" />
    <glyph glyph-name="gas"
      unicode="&#xE639;"
      horiz-adv-x="1211.71875" d="M611.71875 1069.921875Q655.078125 999.609375 707.8125 908.203125T806.25 725.390625T882.421875 550.78125Q912.890625 468.75 912.890625 414.84375V411.328125Q912.890625 337.5 885.9375 272.4609375T812.109375 158.203125V185.15625Q812.109375 228.515625 793.359375 282.421875Q774.609375 337.5 750.5859375 387.890625T703.125 478.125T671.484375 532.03125L611.71875 626.953125L551.953125 532.03125Q543.75 517.96875 520.3125 478.125T472.8515625 387.890625T430.078125 282.421875Q411.328125 228.515625 411.328125 185.15625V158.203125Q364.453125 207.421875 337.5 272.4609375T310.546875 411.328125V414.84375Q310.546875 467.578125 341.015625 550.78125Q370.3125 632.8125 415.4296875 724.21875T513.28125 907.03125Q564.84375 998.4375 608.203125 1069.921875H611.71875zM611.71875 1200L554.296875 1109.765625Q495.703125 1019.53125 426.5625 893.5546875T300 633.984375T242.578125 414.84375Q242.578125 339.84375 264.84375 271.875Q287.109375 205.078125 326.953125 151.171875T421.875 59.765625Q475.78125 22.265625 539.0625 8.203125Q513.28125 45.703125 498.046875 90.234375T482.8125 185.15625Q482.8125 222.65625 502.734375 276.5625Q522.65625 329.296875 547.265625 377.9296875T591.796875 460.546875L611.71875 494.53125L632.8125 460.546875Q652.734375 426.5625 677.34375 377.9296875T723.046875 275.390625Q742.96875 222.65625 742.96875 185.15625Q742.96875 134.765625 727.734375 89.6484375T685.546875 7.03125Q748.828125 22.265625 803.90625 58.59375Q857.8125 96.09375 898.2421875 150T960.9375 271.875T983.203125 414.84375Q983.203125 500.390625 925.78125 633.984375Q867.1875 767.578125 797.4609375 893.5546875T670.3125 1109.765625L611.71875 1200z" />
    <glyph glyph-name="gasengine"
      unicode="&#xE96E;"
      horiz-adv-x="1200" d="M850 1000V700H650V500H550V550H250V500H200V700H100V200H200V250H250V200H550V250H650V200H1100V1000H850zM250 350H200V400H250V350zM450 300H350V450H450V300zM650 350H550V400H650V350zM1000 300H750V600H950V900H1000V300z" />
    <glyph glyph-name="gearbox"
      unicode="&#xE96F;"
      horiz-adv-x="1200" d="M650 860V785H680L660 765L715 715L740 735V700H814.9999999999999V730L839.9999999999999 710L894.9999999999999 760L869.9999999999999 780H900V860H869.9999999999999L894.9999999999999 880L839.9999999999999 930L814.9999999999999 910V950H734.9999999999999V920L709.9999999999999 940L654.9999999999999 890L674.9999999999999 870L649.9999999999999 860zM775 850C790 850 800 840 800 825S790 800 775 800S750 810 750 825S760 850 775 850zM650 335V410H620L645 430L590 485L570 460V490H484.9999999999999V460L459.9999999999999 485L405 435L425 415H400V339.9999999999999H430L410 314.9999999999999L464.9999999999999 264.9999999999999L489.9999999999999 289.9999999999999V249.9999999999998H565V279.9999999999999L585 254.9999999999999L640 304.9999999999999L615 329.9999999999999L649.9999999999999 335zM525 344.9999999999999C509.9999999999999 344.9999999999999 500 354.9999999999999 500 369.9999999999999S509.9999999999999 394.9999999999999 525 394.9999999999999S550 385 550 369.9999999999999C550 360 540 344.9999999999999 525 344.9999999999999zM950 1100H100V1000H950C980.0000000000002 1000 1000 980 1000 950V700C1000 670 980.0000000000002 650 950 650H350C265 650 200 585 200 500V250C200 165 265 100 350 100H800C885 100 950 165 950 250V350H850V250C850 219.9999999999999 830.0000000000001 200 800 200H350C320 200 300 219.9999999999999 300 250V500C300 530 320 550 350 550H950C1035 550 1100 615 1100 700V950C1100 1035 1035 1100 950 1100zM155 950H550V850H155V950z" />
    <glyph glyph-name="gift"
      unicode="&#xE949;"
      horiz-adv-x="1223.4375" d="M645.703125 887.109375Q649.21875 887.109375 650.9765625 886.5234375T653.90625 887.109375Q697.265625 895.3125 740.0390625 907.6171875T823.828125 937.5Q844.921875 946.875 864.84375 958.0078125T901.171875 986.71875Q921.09375 1008.984375 926.3671875 1034.765625T919.921875 1087.5Q908.203125 1115.625 885.9375 1130.2734375T833.203125 1146.09375Q806.25 1147.265625 785.15625 1133.7890625T747.65625 1100.390625Q724.21875 1073.4375 708.3984375 1041.796875T679.6875 978.515625Q670.3125 956.25 662.6953125 933.3984375T645.703125 887.109375zM575.390625 885.9375V891.796875Q562.5 931.640625 546.6796875 971.484375T510.9375 1048.828125Q496.875 1073.4375 480.46875 1095.703125T439.453125 1133.203125Q416.015625 1147.265625 387.890625 1146.6796875T336.328125 1128.515625T302.9296875 1087.5T297.65625 1034.765625Q302.34375 1007.8125 318.75 990.234375T357.421875 959.765625Q393.75 937.5 433.59375 924.0234375T514.453125 900Q529.6875 895.3125 544.3359375 892.3828125T575.390625 885.9375zM638.671875 626.953125H1157.8125V826.171875H638.671875V626.953125zM65.625 626.953125H584.765625V825H65.625V626.953125zM638.671875 53.90625H1103.90625V573.046875H638.671875V53.90625zM119.53125 53.90625H584.765625V573.046875H119.53125V53.90625zM64.453125 573.046875H52.734375Q33.984375 574.21875 22.8515625 584.765625T11.71875 614.0625V833.203125Q11.71875 856.640625 23.4375 868.359375T58.59375 880.078125H390.234375V882.421875L385.546875 884.765625L380.859375 887.109375Q353.90625 898.828125 328.7109375 913.4765625T282.421875 950.390625Q243.75 992.578125 243.1640625 1050T280.078125 1148.4375Q318.75 1192.96875 375.5859375 1198.828125T479.296875 1170.703125Q507.421875 1149.609375 526.7578125 1122.65625T561.328125 1066.40625Q575.390625 1038.28125 587.6953125 1010.15625T612.890625 953.90625Q614.0625 956.25 615.234375 959.1796875T617.578125 965.625Q633.984375 1010.15625 655.078125 1053.515625T706.640625 1134.375Q740.625 1176.5625 786.9140625 1192.3828125T878.90625 1191.796875Q919.921875 1177.734375 945.1171875 1148.4375T978.515625 1076.953125Q985.546875 1032.421875 970.8984375 996.09375T921.09375 932.8125Q903.515625 919.921875 883.0078125 909.375T842.578125 887.109375L837.890625 884.765625L833.203125 880.078125H1164.84375Q1188.28125 880.078125 1200 868.359375T1211.71875 833.203125V623.4375Q1211.71875 596.484375 1201.171875 585.3515625T1163.671875 573.046875H1162.5L1158.984375 571.875V48.046875Q1158.984375 23.4375 1147.265625 11.71875T1110.9375 0H113.671875Q87.890625 0 76.171875 11.71875T64.453125 49.21875V573.046875z" />
    <glyph glyph-name="globallocal"
      unicode="&#xE914;"
      horiz-adv-x="1223.4375" d="M931.640625 882.421875L891.796875 842.578125L1106.25 635.15625H788.671875V917.578125H11.71875V282.421875H788.671875V564.84375H1106.25L891.796875 357.421875L931.640625 317.578125L1211.71875 600zM717.1875 635.15625H434.765625V564.84375H717.1875V352.734375H82.03125V847.265625H717.1875V635.15625z" />
    <glyph glyph-name="globe"
      unicode="&#xE634;"
      horiz-adv-x="1223.4375" d="M611.71875 1200Q487.5 1200 378.515625 1153.125Q268.359375 1106.25 186.9140625 1024.8046875T58.59375 833.203125Q11.71875 724.21875 11.71875 600T58.59375 366.796875Q105.46875 256.640625 186.9140625 175.1953125T378.515625 46.875Q487.5 0 611.71875 0T844.921875 46.875Q955.078125 93.75 1036.5234375 175.1953125T1164.84375 366.796875Q1211.71875 475.78125 1211.71875 600T1164.84375 833.203125Q1117.96875 943.359375 1036.5234375 1024.8046875T844.921875 1153.125Q735.9375 1200 611.71875 1200zM581.25 70.3125Q557.8125 112.5 533.203125 163.4765625T486.328125 268.359375L741.796875 282.421875Q716.015625 217.96875 690.234375 164.0625T637.5 59.765625Q632.8125 67.96875 625.78125 69.140625T610.546875 70.3125H580.078125H581.25zM454.6875 352.734375Q437.109375 399.609375 424.8046875 452.9296875T408.984375 562.5L814.453125 564.84375Q810.9375 506.25 798.6328125 452.34375T766.40625 348.046875zM82.03125 564.84375H346.875Q350.390625 506.25 361.5234375 452.34375T389.0625 346.875L144.140625 352.734375Q118.359375 398.4375 102.5390625 451.7578125T82.03125 562.5V564.84375zM611.71875 1129.6875H638.671875Q665.625 1085.15625 691.9921875 1033.59375T740.625 928.125L478.125 917.578125Q503.90625 979.6875 530.859375 1033.0078125T588.28125 1136.71875Q592.96875 1130.859375 598.828125 1130.2734375T611.71875 1129.6875zM768.75 847.265625Q783.984375 801.5625 795.703125 748.828125T813.28125 639.84375L410.15625 635.15625Q416.015625 694.921875 427.734375 748.828125T457.03125 854.296875zM348.046875 635.15625H82.03125Q86.71875 693.75 101.953125 747.65625T142.96875 849.609375L389.0625 847.265625Q373.828125 800.390625 363.28125 747.0703125T348.046875 638.671875V635.15625zM876.5625 564.84375H1140.234375Q1135.546875 506.25 1119.7265625 452.34375T1078.125 350.390625L835.546875 352.734375Q851.953125 399.609375 862.5 452.9296875T876.5625 562.5V564.84375zM876.5625 635.15625Q873.046875 693.75 861.9140625 748.2421875T833.203125 853.125L1081.640625 847.265625Q1107.421875 801.5625 1122.65625 748.2421875T1141.40625 636.328125zM1034.765625 917.578125H809.765625Q786.328125 977.34375 762.890625 1028.3203125T713.671875 1127.34375Q764.0625 1114.453125 809.765625 1093.359375Q855.46875 1073.4375 895.8984375 1047.0703125T971.484375 989.0625Q1005.46875 956.25 1034.765625 918.75V917.578125zM506.25 1119.140625Q482.8125 1076.953125 459.9609375 1028.90625T417.1875 929.296875L188.671875 917.578125Q216.796875 956.25 251.953125 987.890625Q285.9375 1020.703125 325.78125 1045.8984375T410.15625 1089.84375T502.734375 1117.96875zM188.671875 282.421875H411.328125Q434.765625 222.65625 458.7890625 171.6796875T509.765625 73.828125Q459.375 86.71875 413.671875 106.640625T327.5390625 152.9296875T251.953125 210.9375Q217.96875 243.75 188.671875 281.25V282.421875zM717.1875 80.859375Q741.796875 123.046875 764.6484375 171.6796875T808.59375 271.875L1034.765625 282.421875Q1006.640625 244.921875 971.484375 212.109375T897.0703125 154.1015625T813.28125 110.15625Q768.75 92.578125 720.703125 82.03125z" />
    <glyph glyph-name="graduates"
      unicode="&#xE60B;"
      horiz-adv-x="1223.4375" d="M1123.828125 387.890625Q1123.828125 399.609375 1119.140625 410.15625T1106.25 427.734375V662.109375L1211.71875 705.46875L611.71875 952.734375L11.71875 705.46875L294.140625 589.453125V352.734375Q294.140625 317.578125 321.09375 291.796875Q349.21875 264.84375 393.75 247.265625T495.703125 220.3125Q553.125 212.109375 611.71875 212.109375T727.734375 220.3125Q785.15625 229.6875 829.6875 247.265625T902.34375 291.796875Q929.296875 317.578125 929.296875 352.734375V589.453125L1034.765625 633.984375V427.734375Q1026.5625 420.703125 1021.875 410.15625T1017.1875 387.890625Q1017.1875 371.484375 1027.1484375 358.0078125T1052.34375 338.671875L999.609375 255.46875H1141.40625L1083.984375 337.5Q1101.5625 342.1875 1112.6953125 356.25T1123.828125 387.890625zM858.984375 352.734375Q858.984375 337.5 795.703125 309.9609375T611.71875 282.421875T427.734375 309.9609375T364.453125 352.734375V560.15625L611.71875 459.375L858.984375 560.15625V352.734375zM611.71875 535.546875L196.875 705.46875L611.71875 876.5625L1026.5625 705.46875z" />
    <glyph glyph-name="graph"
      unicode="&#xE9AE;"
      horiz-adv-x="1223.4375" d="M82.03125 217.96875Q90.234375 215.625 99.0234375 213.8671875T117.1875 212.109375Q161.71875 212.109375 192.7734375 243.1640625T223.828125 317.578125Q223.828125 331.640625 220.3125 344.53125T209.765625 367.96875L394.921875 573.046875Q404.296875 569.53125 414.2578125 567.1875T434.765625 564.84375Q453.515625 564.84375 469.3359375 570.703125T499.21875 585.9375L650.390625 485.15625Q649.21875 479.296875 648.046875 472.8515625T646.875 459.375V458.203125Q646.875 414.84375 677.9296875 383.7890625T752.34375 352.734375Q796.875 352.734375 827.9296875 383.7890625T858.984375 458.203125Q858.984375 475.78125 853.7109375 491.6015625T839.0625 520.3125L1076.953125 851.953125Q1082.8125 849.609375 1090.4296875 848.4375T1106.25 847.265625Q1149.609375 847.265625 1180.6640625 878.3203125T1211.71875 952.734375Q1211.71875 997.265625 1180.6640625 1028.3203125T1106.25 1059.375Q1061.71875 1059.375 1031.25 1028.3203125T1000.78125 952.734375Q1000.78125 936.328125 1005.46875 920.5078125T1019.53125 891.796875L781.640625 560.15625Q775.78125 562.5 768.1640625 563.671875T752.34375 564.84375Q734.765625 564.84375 718.9453125 558.984375T690.234375 542.578125L537.890625 644.53125Q539.0625 650.390625 540.234375 656.8359375T541.40625 670.3125Q541.40625 714.84375 510.3515625 745.8984375T434.765625 776.953125Q391.40625 776.953125 360.3515625 745.8984375T329.296875 670.3125Q329.296875 656.25 332.8125 643.9453125T342.1875 619.921875L158.203125 414.84375Q148.828125 419.53125 138.8671875 421.2890625T117.1875 423.046875Q107.8125 423.046875 99.0234375 421.2890625T82.03125 417.1875V1200H11.71875V0H1211.71875V70.3125H82.03125V217.96875zM1106.25 987.890625Q1120.3125 987.890625 1130.859375 977.9296875T1141.40625 952.734375Q1141.40625 938.671875 1130.859375 928.125T1106.25 917.578125Q1091.015625 917.578125 1081.0546875 928.125T1071.09375 952.734375Q1071.09375 967.96875 1081.0546875 977.9296875T1106.25 987.890625zM752.34375 494.53125Q767.578125 494.53125 778.125 483.984375T788.671875 459.375Q788.671875 444.140625 778.125 433.59375T752.34375 423.046875Q738.28125 423.046875 727.734375 433.59375T717.1875 459.375Q717.1875 473.4375 727.734375 483.984375T752.34375 494.53125zM434.765625 705.46875Q450 705.46875 460.546875 695.5078125T471.09375 670.3125Q471.09375 656.25 460.546875 645.703125T434.765625 635.15625Q420.703125 635.15625 410.15625 645.703125T399.609375 670.3125Q399.609375 685.546875 410.15625 695.5078125T434.765625 705.46875zM117.1875 352.734375Q132.421875 352.734375 142.3828125 342.7734375T152.34375 317.578125Q152.34375 303.515625 142.3828125 292.96875T117.1875 282.421875Q103.125 282.421875 92.578125 292.96875T82.03125 317.578125Q82.03125 332.8125 92.578125 342.7734375T117.1875 352.734375z" />
    <glyph glyph-name="home"
      unicode="&#xE633;"
      horiz-adv-x="1211.71875" d="M506.25 352.734375H682.03125V0H1071.09375V642.1875L1146.09375 564.84375L1195.3125 614.0625L1071.09375 740.625L660.9375 1150.78125L611.71875 1200L562.5 1150.78125L28.125 616.40625L77.34375 567.1875L152.34375 643.359375V0H506.25V352.734375zM999.609375 70.3125H752.34375V423.046875H434.765625V70.3125H223.828125V713.671875L611.71875 1101.5625L999.609375 713.671875V70.3125zM999.609375 917.578125H1071.09375V1129.6875H858.984375V1059.375H999.609375V917.578125z" />
    <glyph glyph-name="hydraulics"
      unicode="&#xE960;"
      horiz-adv-x="1200" d="M250 1100V850H350V700H550V390C470 360 430 275 459.9999999999999 200C489.9999999999999 120 575 80 650 110S770 225 740 300C725 344.9999999999999 690 375 650 390V700H850V850H950V1100H250zM600 200C570 200 550 219.9999999999999 550 250S570 300 600 300S650 280.0000000000001 650 250S625 200 600 200zM750 800H450V850H750V800zM850 950H350V1000H850V950z" />
    <glyph glyph-name="id"
      unicode="&#xE60C;"
      horiz-adv-x="1223.4375" d="M646.875 494.53125H1071.09375V423.046875H646.875V494.53125zM646.875 635.15625H1071.09375V564.84375H646.875V635.15625zM646.875 776.953125H1071.09375V705.46875H646.875V776.953125zM646.875 917.578125H894.140625V847.265625H646.875V917.578125zM576.5625 423.046875H152.34375V547.265625Q153.515625 581.25 176.953125 606.4453125T234.375 635.15625H494.53125Q528.515625 631.640625 551.953125 606.4453125T576.5625 547.265625V423.046875zM223.828125 494.53125H506.25V547.265625Q505.078125 553.125 501.5625 557.2265625T493.359375 564.84375H234.375Q230.859375 561.328125 227.9296875 557.2265625T223.828125 547.265625V494.53125zM1211.71875 140.625H964.453125V176.953125Q964.453125 206.25 943.9453125 226.7578125T894.140625 247.265625T844.3359375 226.7578125T823.828125 176.953125V140.625H399.609375V179.296875Q399.609375 207.421875 380.2734375 227.34375T332.8125 247.265625H326.953125Q298.828125 247.265625 278.90625 227.34375T258.984375 178.125V140.625H11.71875V1059.375H1211.71875V140.625zM1030.078125 212.109375H1141.40625V987.890625H82.03125V212.109375H193.359375Q202.734375 257.8125 239.6484375 287.6953125T324.609375 317.578125H333.984375Q382.03125 317.578125 418.9453125 287.6953125T465.234375 212.109375H757.03125Q767.578125 257.8125 803.90625 287.6953125T888.28125 317.578125H900Q948.046875 317.578125 984.375 287.6953125T1030.078125 212.109375zM364.453125 635.15625Q305.859375 635.15625 264.84375 676.7578125T223.828125 776.953125Q223.828125 834.375 264.84375 875.9765625T364.453125 917.578125T464.6484375 875.9765625T506.25 776.953125Q506.25 718.359375 464.6484375 676.7578125T364.453125 635.15625zM364.453125 847.265625Q335.15625 847.265625 314.6484375 826.7578125T294.140625 776.953125T314.6484375 726.5625T364.453125 705.46875T414.2578125 726.5625T434.765625 776.953125T414.2578125 826.7578125T364.453125 847.265625z" />
    </font>
</defs>
</svg>
